Камчатка и Курильские острова / Kamchatka & Kuril islands (2017) WEBRip [H.264/2160p] [4K, UHD]

Модераторы: Модераторы, Модераторы фильмов

alex11 Аватара пользователя
Модератор
Модератор

Раздал: 12.98 ТБ
Скачал: 50.43 ГБ
Ратио: 263.639
Сообщения: 1288

Зарегистрирован: 10 апр 2017, 07:25
В кошельке: 580.00
Банк: 72,052.12
Награды: 10
Путь к журналисту (1) Журналист (1) Старший журналист (1) За заслуги перед форумом (1)
Богат как фараон (1) Я сама щедрость! (1) В обмен на рекламный банер (1) Раздал 1 Tb (1)
Раздал 5 Tb (1) С Днем Рождения! (1)
Заслуженная репутация: 17
НовичокНовичокНовичокНовичок
  • Постеры
Производство: Россия
Жанр: Документальный, видовой

Описание:
Камчатка и Курильские острова - места с нетронутой дикой природой. Затерянные где-то на краю земли, они сохранили свой первозданный облик. Огромные вулканы, великий Тихий океан, дикие животные, бескрайние тундры, леса и горные цепи - всё это мечта любого путешественника. В этой ленте собрано лучшее, что было снято в этих местах.

Продолжительность: 00:07:53
Качество видео: WEBRip
Перевод: Не требуется (нет диалогов и комментариев)
Субтитры: отсутствуют

Видео: AVC/H.264, 3840x2160, ~22,0 Mbps
Аудио: AAC, 2 ch, 256 Kbps


Общее
Уникальный идентификатор : 102860799466152321947361525283451487006 (0x4D6244F60EDA050C3A20051076FEC31E)
Полное имя : F:\КИНО\КАМЧАТКА И КУРИЛЬСКИЕ ОСТРОВA.mkv
Формат : Matroska
Версия формата : Version 4
Размер файла : 1,22 Гбайт
Продолжительность : 7 м. 53 с.
Общий поток : 22,1 Мбит/сек
Дата кодирования : UTC 2019-05-08 17:45:00
Программа кодирования : mkvmerge v33.1.0 ('Primrose') 64-bit
Библиотека кодирования : libebml v1.3.7 + libmatroska v1.5.0

Видео
Идентификатор : 1
Формат : AVC
Формат/Информация : Advanced Video Codec
Профиль формата : High@L5.2
Настройки формата : CABAC / 5 Ref Frames
Параметр CABAC формата : Да
Параметр RefFrames формата : 5 кадров
Идентификатор кодека : V_MPEG4/ISO/AVC
Продолжительность : 7 м. 53 с.
Битрейт : 22,0 Мбит/сек
Ширина : 3840 пикселей
Высота : 2160 пикселей
Соотношение сторон : 16:9
Режим частоты кадров : Постоянный
Частота кадров : 25,000 кадров/сек
Цветовое пространство : YUV
Субдискретизация насыщенности : 4:2:0
Битовая глубина : 8 бит
Тип развёртки : Прогрессивная
Бит/(Пиксели*Кадры) : 0.106
Размер потока : 1,20 Гбайт (99%)
Библиотека кодирования : x264 core 155 r10 7d0ff22
Настройки программы : cabac=1 / ref=5 / deblock=1:0:0 / analyse=0x3:0x113 / me=hex / subme=8 / psy=1 / psy_rd=1.00:0.00 / mixed_ref=1 / me_range=16 / chroma_me=1 / trellis=2 / 8x8dct=1 / cqm=0 / deadzone=21,11 / fast_pskip=1 / chroma_qp_offset=-2 / threads=48 / lookahead_threads=8 / sliced_threads=0 / nr=0 / decimate=1 / interlaced=0 / bluray_compat=0 / stitchable=1 / constrained_intra=0 / bframes=3 / b_pyramid=2 / b_adapt=2 / b_bias=0 / direct=3 / weightb=1 / open_gop=0 / weightp=2 / keyint=infinite / keyint_min=25 / scenecut=40 / intra_refresh=0 / rc_lookahead=50 / rc=2pass / mbtree=1 / bitrate=22000 / ratetol=1.0 / qcomp=0.60 / qpmin=5 / qpmax=69 / qpstep=4 / cplxblur=20.0 / qblur=0.5 / vbv_maxrate=24200 / vbv_bufsize=66000 / nal_hrd=none / filler=0 / ip_ratio=1.40 / aq=1:1.00
Default : Да
Forced : Нет
Цветовой диапазон : Limited
Основные цвета : BT.709
Характеристики трансфера : BT.709
Коэффициенты матрицы : BT.709

Аудио
Идентификатор : 2
Формат : AAC LC
Формат/Информация : Advanced Audio Codec Low Complexity
Идентификатор кодека : A_AAC-2
Продолжительность : 7 м. 53 с.
Битрейт : 256 Кбит/сек
Каналы : 2 канала
ChannelLayout : L R
Частота : 48,0 КГц
Частота кадров : 46,875 кадров/сек (1024 SPF)
Метод сжатия : С потерями
Размер потока : 14,4 Мбайт (1%)
Default : Да
Forced : Нет
  • Торрент
Автор: alex11 Хэш: ---
Добавлен: 09 май 2019, 19:55 Приватный: Нет (DHT включён)
Статус: Проверен
Размер: 1.22 ГБ (1 309 094 518 байт)
Изменил:
---
Скачали: 2 (Раздающих: 100%)
Причина:
---
Здоровье: 100%
Сидеров: 25 Личеров: 1
Скорость раздачи: 0 байт/сек Скорость скачивания: 0 байт/сек
Последний сидер: 17 дней 22 часа 18 минут 12 секунд назад Последний личер: 1 месяц 8 дней 12 часов 56 минут 17 секунд назад
Для скачивания торрента необходимо зарегистрироваться или войти на трекер.

Вернуться в Документальные фильмы | Путешествия и туризм


cron
Ресурс не предоставляет электронные версии произведений, а занимается лишь коллекционированием и каталогизацией ссылок, присылаемых и публикуемых на форуме нашими читателями. Если вы являетесь правообладателем какого-либо представленного материала и не желаете чтобы ссылка на него находилась в нашем каталоге, свяжитесь с нами и мы незамедлительно удалим её. Файлы для обмена на трекере предоставлены пользователями сайта, и администрация не несёт ответственности за их содержание. Просьба не заливать файлы, защищенные авторскими правами, а также файлы нелегального содержания!
cron