NG. Потерянные мумии Новой Гвинеи / Mystery Mummies of New Guinea (Lost Mummies of New Guinea) (2018) DVB

Это спутниковые и кабельные телеканалы которые доступны для просмотра на множестве языков и во многих странах мира. Вещание телеканалов основано на документальных передачах о науке, технологии и истории. Стиль передач каналов является научно-популярным.

Модераторы: Модераторы, Модераторы фильмов

alex11 Аватара пользователя
Модератор
Модератор

Раздал: 12.98 ТБ
Скачал: 50.43 ГБ
Ратио: 263.639
Сообщения: 1287

Зарегистрирован: 10 апр 2017, 07:25
В кошельке: 565.00
Банк: 105,467.12
Награды: 10
Путь к журналисту (1) Журналист (1) Старший журналист (1) За заслуги перед форумом (1)
Богат как фараон (1) Я сама щедрость! (1) В обмен на рекламный банер (1) Раздал 1 Tb (1)
Раздал 5 Tb (1) С Днем Рождения! (1)
Заслуженная репутация: 17
НовичокНовичокНовичокНовичок
  • Постеры
Производство: США, John Rubin Productions INC, National Geographic
Жанр: Документальный, история, исследование

Режиссер: Джон Рубин

Описание:
Высоко в скалах, окружающих территорию, на которой живет племя Кок в Папуа-Новой Гвинее, располагаются галереи, сооруженные их предками. Подвешенные в них на цепях мумии смотрят прямо на деревню. Они сохранены на века, чтобы их навещали и отдавали им почести. С 50-х годов, когда в этот регион стали заезжать миссионеры, ритуал мумификации умерших родственников был запрещен. Старейшина общины, Гемтазу, захотел изменить этот порядок. Он не захотел быть похороненным в земле, после чего его никто уже больше не увидит. Когда пришло время умирать, он завещал своим родственникам мумифицировать его так, как он сделал это со своим отцом. Руководитель экспедиции и фотограф Улла Ломан присутствовали при этом обряде и смогли его задокументировать, чтобы сделать это событие достоянием всего человечества.

8.4/10
Возраст: 16+ (зрителям, достигшим 16 лет)

Релиз от: Zakol
Продолжительность: 00:38:32
Качество видео: DVB
Перевод: Одноголосый закадровый, профессиональный (Велес)
Субтитры: отсутствуют

Видео: MPEG-2, 720х576@1024x576, ~3250 Kbps
Аудио#1: MP2, 2 ch, 192 Kbps | Русский (текст читает: В.Прохоров)
Аудио#2: MP2, 2 ch, 192 Kbps | Английский


Общее
Идентификатор : 1 (0x1)
Полное имя : F:\КИНО\Потерянные мумии DVB (2018).ts
Формат : MPEG-TS
Размер файла : 1,03 Гбайт
Продолжительность : 38 м. 32 с.
Режим общего битрейта : Переменный
Общий поток : 3828 Кбит/сек

Видео
Идентификатор : 274 (0x112)
Идентификатор меню : 25 (0x19)
Формат : MPEG Video
Версия формата : Version 2
Профиль формата : Main@Main
Настройки формата : CustomMatrix
Параметр BVOP формата : Нет
Параметр матрицы формата : Выборочная
Параметр GOP формата : N=33
Структура изображения : Frame
Идентификатор кодека : 2
Продолжительность : 38 м. 32 с.
Вид битрейта : Переменный
Битрейт : 3251 Кбит/сек
Максимальный битрейт : 3300 Кбит/сек
Ширина : 720 пикселей
Высота : 576 пикселей
Соотношение сторон : 16:9
Частота кадров : 25,000 кадров/сек
Стандарт вещания : PAL
Цветовое пространство : YUV
Субдискретизация насыщенности : 4:2:0
Битовая глубина : 8 бит
Тип развёртки : Чересстрочная
Порядок развёртки : Верхнее поле первое
Метод сжатия : С потерями
Бит/(Пиксели*Кадры) : 0.314
Временной код первого кадра : 00:00:00:00
Оригинал временного кода : Group of pictures header
GOP, открыто/закрыто : Закрыто
Размер потока : 896 Мбайт (85%)

Аудио #1
Идентификатор : 275 (0x113)
Идентификатор меню : 25 (0x19)
Формат : MPEG Audio
Версия формата : Version 1
Профиль формата : Layer 2
Идентификатор кодека : 3
Продолжительность : 38 м. 32 с.
Вид битрейта : Постоянный
Битрейт : 192 Кбит/сек
Каналы : 2 канала
Частота : 48,0 КГц
Частота кадров : 41,667 кадра/сек (1152 SPF)
Метод сжатия : С потерями
Задержка видео : 18 мс.
Размер потока : 52,9 Мбайт (5%)
Язык : Russian

Аудио #2
Идентификатор : 276 (0x114)
Идентификатор меню : 25 (0x19)
Формат : MPEG Audio
Версия формата : Version 1
Профиль формата : Layer 2
Идентификатор кодека : 3
Продолжительность : 38 м. 32 с.
Вид битрейта : Постоянный
Битрейт : 192 Кбит/сек
Каналы : 2 канала
Частота : 48,0 КГц
Частота кадров : 41,667 кадра/сек (1152 SPF)
Метод сжатия : С потерями
Задержка видео : 18 мс.
Размер потока : 52,9 Мбайт (5%)
Язык : English
  • Торрент
Автор: alex11 Хэш: ---
Добавлен: 22 окт 2018, 22:30 Приватный: Нет (DHT включён)
Статус: Проверен
Размер: 1.03 ГБ (1 106 402 184 байт)
Изменил:
---
Скачали: 0 (Раздающих: 0%)
Причина:
---
Здоровье: ???%
Сидеров: 0 Личеров: 1
Скорость раздачи: 0 байт/сек Скорость скачивания: 0 байт/сек
Последний сидер: 1 год 10 месяцев 10 дней 15 часов 40 минут 8 секунд назад Последний личер: 22 дня 21 час 43 минуты 58 секунд назад
Для скачивания торрента необходимо зарегистрироваться или войти на трекер.

Вернуться в Документальные фильмы | BBC, Discovery, National Geographic


Ресурс не предоставляет электронные версии произведений, а занимается лишь коллекционированием и каталогизацией ссылок, присылаемых и публикуемых на форуме нашими читателями. Если вы являетесь правообладателем какого-либо представленного материала и не желаете чтобы ссылка на него находилась в нашем каталоге, свяжитесь с нами и мы незамедлительно удалим её. Файлы для обмена на трекере предоставлены пользователями сайта, и администрация не несёт ответственности за их содержание. Просьба не заливать файлы, защищенные авторскими правами, а также файлы нелегального содержания!
cron