BBC: Тайная жизнь хаоса | BBC: The secret life of chaos (Jim Al-Khalili) [2010, Документальный, PDTVRip]

Это спутниковые и кабельные телеканалы которые доступны для просмотра на множестве языков и во многих странах мира. Вещание телеканалов основано на документальных передачах о науке, технологии и истории. Стиль передач каналов является научно-популярным.

Модераторы: Модераторы, Модераторы фильмов

PREDATOR-DJ Аватара пользователя
Администратор
Администратор

Раздал: 38.72 ТБ
Скачал: 3.89 ТБ
Ратио: 9.958
Сообщения: 1920

Зарегистрирован: 15 авг 2016, 12:12
В кошельке: 8,281.00
Банк: 94,089.50
Откуда: Зазеркалье
Награды: 8
Путь к журналисту (1) Админ (1) За заслуги перед форумом (1) Спасибо тебе! (1)
Админcтво в Battlefield (1) В обмен на рекламный банер (1) Голосовой чат Mumble (1) Раздал 1 Tb (1)
Заслуженная репутация: 20
НовичокНовичокНовичокНовичокНовичок

  • Постеры
Год выпуска: 2010
Страна: Великобритания
Жанр: Документальный
Продолжительность: 00:59:13
Перевод: Одноголосый закадровый (Любительский)
Русские субтитры: есть

Режиссер: Jim Al-Khalili

Описание: Теория хаоса вызывает в воображении картины непредсказуемой погоды, экономических крахов и бессилия науки. Но у хаоса есть захватывающая и скрытая сторона, та, которую ученые только сейчас начинают понимать. Оказывается, что теория хаоса отвечает на вопрос, на который человечество искало ответ в течение многих тысячелетий - как мы оказались здесь?
В этом документальном фильме Профессор Джим Аль-Хэлили намеревается раскрыть одну из величайших тайн науки - что движет вселенную, которая начинается как пыль и в итоге заканчивается как разумная жизнь? Как действительно создается порядок из беспорядка?

качество: PDTVRip
формат: MKV
Видео: 1024x576, 25.00 fps, MPEG4 Video (H264) ~1850 kbps avg, 0.123 bit/pixel
Аудио: A_MPEG/L3, 256 Kbps, 44.1 KHz, 2 channels
General
Unique ID : 245562552997498531748000247677172162848 (0xB8BDA09D892C285DB93252716DEDA120)
Complete name : D:\Кино\BBC.The.Secret.Life.of.Chaos.PDTV.x264.mkv
Format : Matroska
Format version : Version 2
File size : 974 MiB
Duration : 59mn 13s
Overall bit rate : 2 299 Kbps
Encoded date : UTC 2013-10-20 18:46:07
Writing application : mkvmerge v5.7.0 ('The Whirlwind') built on Jul 29 2012 15:12:35
Writing library : libebml v1.2.3 + libmatroska v1.3.0

Video
ID : 1
Format : AVC
Format/Info : Advanced Video Codec
Format profile : High@L3.1
Format settings, CABAC : No
Format settings, ReFrames : 4 frames
Codec ID : V_MPEG4/ISO/AVC
Duration : 59mn 13s
Bit rate : 1 850 Kbps
Width : 1 024 pixels
Height : 576 pixels
Display aspect ratio : 16:9
Frame rate mode : Constant
Frame rate : 25.000 fps
Color space : YUV
Chroma subsampling : 4:2:0
Bit depth : 8 bits
Scan type : Progressive
Bits/(Pixel*Frame) : 0.125
Stream size : 765 MiB (79%)
Writing library : x264 core 80 r1376 3feaec2
Encoding settings : cabac=0 / ref=4 / deblock=1:0:0 / analyse=0x3:0x113 / me=umh / subme=9 / psy=1 / psy_rd=1.0:0.0 / mixed_ref=1 / me_range=24 / chroma_me=1 / trellis=0 / 8x8dct=1 / cqm=0 / deadzone=21,11 / fast_pskip=0 / chroma_qp_offset=-2 / threads=3 / sliced_threads=0 / nr=0 / decimate=1 / mbaff=0 / constrained_intra=0 / bframes=3 / b_pyramid=0 / b_adapt=1 / b_bias=0 / direct=1 / wpredb=1 / wpredp=2 / keyint=250 / keyint_min=25 / scenecut=40 / rc_lookahead=40 / rc=2pass / mbtree=1 / bitrate=1850 / ratetol=1.0 / qcomp=0.60 / qpmin=10 / qpmax=51 / qpstep=4 / cplxblur=20.0 / qblur=0.5 / vbv_maxrate=17500 / vbv_bufsize=14000 / ip_ratio=1.40 / aq=1:1.00
Language : English
Default : Yes
Forced : No

Audio #1
ID : 2
Format : MPEG Audio
Format version : Version 1
Format profile : Layer 3
Mode : Joint stereo
Codec ID : A_MPEG/L3
Codec ID/Hint : MP3
Duration : 59mn 13s
Bit rate mode : Constant
Bit rate : 256 Kbps
Channel count : 2 channels
Sampling rate : 44.1 KHz
Compression mode : Lossy
Stream size : 108 MiB (11%)
Writing library : LAME3.96
Language : Russian
Default : Yes
Forced : No

Audio #2
ID : 3
Format : AC-3
Format/Info : Audio Coding 3
Mode extension : CM (complete main)
Format settings, Endianness : Big
Codec ID : A_AC3
Duration : 59mn 13s
Bit rate mode : Constant
Bit rate : 192 Kbps
Channel count : 2 channels
Channel positions : Front: L R
Sampling rate : 48.0 KHz
Bit depth : 16 bits
Compression mode : Lossy
Stream size : 81.3 MiB (8%)
Language : English
Default : No
Forced : No

Text #1
ID : 4
Format : UTF-8
Codec ID : S_TEXT/UTF8
Codec ID/Info : UTF-8 Plain Text
Language : Russian
Default : Yes
Forced : No

Text #2
ID : 5
Format : UTF-8
Codec ID : S_TEXT/UTF8
Codec ID/Info : UTF-8 Plain Text
Language : English
Default : No
Forced : No
Мы в соц сетях:
Посмотреть товар в профиле пользователя

Нажмите на изображение, чтобы увидеть в полный размер  
1 шт.
Нажмите на изображение, чтобы увидеть в полный размер  
1 шт.
Нажмите на изображение, чтобы увидеть в полный размер  
1 шт.
Нажмите на изображение, чтобы увидеть в полный размер  
1 шт.
  • Торрент
Автор: PREDATOR-DJ Хэш: ---
Добавлен: 11 окт 2016, 02:29 Приватный: Нет (DHT включён)
Статус: Проверен
Размер: 973.8 МБ (1 021 100 893 байт)
Изменил: PREDATOR-DJ (11 окт 2016, 02:31)
Скачали: 3 (Раздающих: 0%)
Причина: http://rutracker.net/forum/viewtopic.php?t=4567050
Здоровье: 100%
Сидеров: 34 Личеров: 11
Скорость раздачи: 0 байт/сек Скорость скачивания: 0 байт/сек
Последний сидер: 4 месяца 26 дней 12 часов 28 минут 52 секунды назад Последний личер: 4 месяца 26 дней 12 часов 28 минут 52 секунды назад
Для скачивания торрента необходимо зарегистрироваться или войти на трекер.

Вернуться в Документальные фильмы | BBC, Discovery, National Geographic


Ресурс не предоставляет электронные версии произведений, а занимается лишь коллекционированием и каталогизацией ссылок, присылаемых и публикуемых на форуме нашими читателями. Если вы являетесь правообладателем какого-либо представленного материала и не желаете чтобы ссылка на него находилась в нашем каталоге, свяжитесь с нами и мы незамедлительно удалим её. Файлы для обмена на трекере предоставлены пользователями сайта, и администрация не несёт ответственности за их содержание. Просьба не заливать файлы, защищенные авторскими правами, а также файлы нелегального содержания!
cron