BBC: Шок и Трепет - История электричества | Shock and Awe - The Story of Electricity (3 серии из 3) (Jim Al-Khalili) [2011 г., Документальный, HDTVRip 720p]

Это спутниковые и кабельные телеканалы которые доступны для просмотра на множестве языков и во многих странах мира. Вещание телеканалов основано на документальных передачах о науке, технологии и истории. Стиль передач каналов является научно-популярным.

Модераторы: Модераторы, Модераторы фильмов

PREDATOR-DJ Аватара пользователя
Администратор
Администратор

Раздал: 40.36 ТБ
Скачал: 3.9 ТБ
Ратио: 10.351
Сообщения: 1947

Зарегистрирован: 15 авг 2016, 12:12
В кошельке: 8,580.00
Банк: 125,216.50
Откуда: Зазеркалье
Награды: 8
Путь к журналисту (1) Админ (1) За заслуги перед форумом (1) Спасибо тебе! (1)
Админcтво в Battlefield (1) В обмен на рекламный банер (1) Голосовой чат Mumble (1) Раздал 1 Tb (1)
Заслуженная репутация: 20
НовичокНовичокНовичокНовичокНовичок

  • Постеры
От волшебства и магии... К цифровой революции...
Год выпуска: 2011 [премьера - 6 октября]
Страна: Великобритания
Жанр: Документальный, Научно-популярный, Исторический
Продолжительность 2х60 мин
Перевод: Профессиональный [одноголосый]
Русские субтитры: нет
Режиссер: Tim Usborne
В ролях: Джим Аль-Халили OBE

Описание: Британский профессор Джим Аль-Халили представляет удивительную историю открытия и освоения одного из самых загадочных явлений природы - электричества.
Еще совсем недавно электричество казалось сплошным волшебством и магией, а сегодня без него уже трудно представить себе нашу жизнь. Этот документальный фильм рассказывает о гигантском прорыве человеческой мысли и необыкновенных экспериментах гениальных ученых, благодаря которым в мире появился электрический свет, междугородняя связь, и произошла цифровая революция.



Качество: HDTVRip
Формат:MKV
Видео кодек: х264
Аудио кодек: AC3
Видео: AVC High@L4.1 3300-3800 Кбит/сек 1280х720 16:9 25,000 кадров/сек
Аудио 1: Русский АС3 224 Кбит/сек
Аудио 2: English АС3 224 Кбит/сек

Серия 1 Искра:
История о первых естествоиспытателях, которые раскрыли тайну электричества.
Они сумели построить странные и невероятно мощные приборы, которые создавали электрические разряды и научились их укрощать.
Именно эти доблестные мужи ковали основы мира будущего, в котором мы сейчас живем. Они сделали фантастическое открытие.
Вы узнаете, как эти ученые пришли к пониманию природы электричества, научились создавать и сохранять его, а также изобрели первую электрическую батарею.

Серия 2 Эпоха изобретений:
200 лет назад ученые сделали важное открытие о непосредственной связи двух природных явлений - электричества и магнетизма.
В этой серии вы узнаете, как это открытие изменило мир, позволив человеку генерировать электроэнергию, которую можно использовать для управления машинами, освещения жилья и общения между континентами.

Серия 3 Откровения и потрясения:
Электричество это не только то, что создает тепло и свет, оно соединяет мир с помощью сетей и вещания.
После столетий экспериментов человека с электричеством, последний эпизод повествует о том, как наступила новая эпоха реального понимания электрических полей и электромагнитных волн.
Сегодня мы вряд ли можем представить себе свою жизнь без электричества, оно определяет нашу эпоху.
И сегодня мы находимся на пороге нового прорыва, потому что если мы сможем понять секрет электрической сверхпроводимости мы сможем снова изменить наш мир. Эта серия рассказывает об ослепительном скачке воображения и необыкновенных экспериментах экстраординарных гениев, которые приспособили электричество для освещения наших городов,
для общения через моря и воздух, что дало толчок появлению современной промышленности и привело к цифровой революции.

Общее
Кол-во : 278
Кол-во потоков такого типа : 1
Тип потока : General
Тип потока : Общее
Идентификатор типа потока : 0
Уникальный идентификатор : 187406494497631150652510701136715094271
Уникальный идентификатор : 187406494497631150652510701136715094271 (0x8CFD2D8E4C962549A29E4402E3BA98FF)
Кол-во видеопотоков : 1
Кол-во аудиопотоков : 2
Video_Format_List : AVC
Video_Format_WithHint_List : AVC
Видеокодеки : AVC
Video_Language_List : English
Audio_Format_List : AC-3 / AC-3
Audio_Format_WithHint_List : AC-3 / AC-3
Аудиокодеки : AC3 / AC3
Audio_Language_List : Russian / English
Имя файла : 1. Shock and Awe - The Story of Electricity [Spark]
Расширение : mkv
Формат : Matroska
Формат : Matroska
Формат/Ссылка : http://packs.matroska.org/
Формат/Используется в : mkv mk3d mka mks
Коммерческое название : Matroska
Версия формата : Version 2
Кодек : Matroska
Кодек : Matroska
Кодек/Ссылка : http://packs.matroska.org/
Кодек/Используется в : mkv mk3d mka mks
Размер файла : 1674449332
Размер файла : 1,56 Гбайт
Размер файла : 2 Гбайт
Размер файла : 1,6 Гбайт
Размер файла : 1,56 Гбайт
Размер файла : 1,559 Гбайт
Продолжительность : 3558400
Продолжительность : 59 м.
Продолжительность : 59 м. 18 с. 400 мс.
Продолжительность : 59 м.
Продолжительность : 00:59:18.400
Общий поток : 3764499
Общий поток : 3764 Кбит/сек
Размер потока : 33321715
Размер потока : 31,8 Мбайт (2%)
Размер потока : 32 Мбайт
Размер потока : 32 Мбайт
Размер потока : 31,8 Мбайт
Размер потока : 31,78 Мбайт
Размер потока : 31,8 Мбайт (2%)
Пропорции потока : 0.01990
Дата кодирования : UTC 2012-01-26 19:35:10
Дата файла : UTC 2012-01-26 19:35:09.120
Дата файла (местная) : 2012-01-26 21:35:09.120
Дата изменения файла : UTC 2012-01-26 19:36:15.129
Дата изменения файла (местная) : 2012-01-26 21:36:15.129
Программа кодирования : mkvmerge v5.1.0 ('And so it goes') built on Nov 28 2011 23:58:28
Библиотека кодирования : libebml v1.2.3 + libmatroska v1.3.0
Библиотека кодирования : libebml v1.2.3 + libmatroska v1.3.0

Видео
Кол-во : 205
Кол-во потоков такого типа : 1
Тип потока : Video
Тип потока : Видео
Идентификатор типа потока : 0
Идентификатор : 1
Идентификатор : 1
Уникальный идентификатор : 4085007507
Формат : AVC
Формат/Информация : Advanced Video Codec
Формат/Ссылка : http://developers.videolan.org/x264.html
Коммерческое название : AVC
Профиль формата : High@L4.1
Настройки формата : CABAC / 4 Ref Frames
Параметр CABAC формата : Yes
Параметр CABAC формата : Да
Параметр ReFrames формата : 4
Параметр ReFrames формата : 4 кадра
Интернет-тип носителя : video/H264
Идентификатор кодека : V_MPEG4/ISO/AVC
Идентификатор кодека/Ссылка : http://ffdshow-tryout.sourceforge.net/
Кодек : V_MPEG4/ISO/AVC
Кодек : AVC
Кодек/Семейство : AVC
Кодек/Информация : Advanced Video Codec
Кодек/Ссылка : http://ffdshow-tryout.sourceforge.net/
Профиль кодека : High@L4.1
Настройки кодека : CABAC / 4 Ref Frames
Параметр CABAC кодека : Yes
Codec_Settings_RefFrames : 4
Продолжительность : 3558400
Продолжительность : 59 м.
Продолжительность : 59 м. 18 с. 400 мс.
Продолжительность : 59 м.
Продолжительность : 00:59:18.400
Битрейт : 3300000
Битрейт : 3300 Кбит/сек
Ширина : 1280
Ширина : 1280 пикселей
Высота : 720
Высота : 720 пикселей
Пропорции пикселя : 1.000
Соотношение сторон : 1.778
Соотношение сторон : 16:9
Частота кадров : 25.000
Частота кадров : 25,000 кадров/сек
Счётчик кадров : 88960
Разрешение : 8
Разрешение : 8 бит
Колориметрия : 4:2:0
Цветовое пространство : YUV
Субдискретизация насыщенности : 4:2:0
Битовая глубина : 8
Битовая глубина : 8 бит
Тип развёртки : Progressive
Тип развёртки : Прогрессивная
Переплетение : PPF
Переплетение : Прогрессивная
Бит/(Пиксели*Кадры) : 0.143
Задержка : 0
Задержка : 00:00:00.000
Задержка в оригинале : Container
Задержка в оригинале : Контейнер
Размер потока : 1441857217
Размер потока : 1,34 Гбайт (86%)
Размер потока : 1 Гбайт
Размер потока : 1,3 Гбайт
Размер потока : 1,34 Гбайт
Размер потока : 1,343 Гбайт
Размер потока : 1,34 Гбайт (86%)
Пропорции потока : 0.86109
Библиотека кодирования : x264 - core 116 r2074 2641b9e
Библиотека кодирования : x264 core 116 r2074 2641b9e
Библиотека кодирования/Имя : x264
Библиотека кодирования/Version : core 116 r2074 2641b9e
Настройки программы : cabac=1 / ref=2 / deblock=1:0:0 / analyse=0x3:0x113 / me=hex / subme=4 / psy=1 / psy_rd=1.00:0.00 / mixed_ref=1 / me_range=16 / chroma_me=1 / trellis=0 / 8x8dct=1 / cqm=0 / deadzone=21,11 / fast_pskip=1 / chroma_qp_offset=0 / threads=7 / sliced_threads=0 / nr=0 / decimate=1 / interlaced=0 / bluray_compat=0 / constrained_intra=0 / bframes=3 / b_pyramid=2 / b_adapt=1 / b_bias=0 / direct=3 / weightb=1 / open_gop=0 / weightp=2 / keyint=250 / keyint_min=25 / scenecut=40 / intra_refresh=0 / rc_lookahead=40 / rc=abr / mbtree=1 / bitrate=3300 / ratetol=1.0 / qcomp=0.60 / qpmin=10 / qpmax=51 / qpstep=4 / vbv_maxrate=50000 / vbv_bufsize=50000 / nal_hrd=none / ip_ratio=1.40 / aq=1:1.00
Default : No
Default : Нет
Forced : No
Forced : Нет

Аудио #1
Кол-во : 184
Кол-во потоков такого типа : 2
Тип потока : Audio
Тип потока : Аудио
Идентификатор типа потока : 0
Позиция идентификатора типа пото : 1
Идентификатор : 2
Идентификатор : 2
Уникальный идентификатор : 1431993739
Формат : AC-3
Формат/Информация : Audio Coding 3
Коммерческое название : AC-3
Расширение режима : CM (complete main)
Идентификатор кодека : A_AC3
Кодек : AC3
Кодек : AC3
Кодек/Семейство : AC3
Кодек/Информация : Dolby AC3
Продолжительность : 3558400
Продолжительность : 59 м.
Продолжительность : 59 м. 18 с. 400 мс.
Продолжительность : 59 м.
Продолжительность : 00:59:18.400
Вид битрейта : CBR
Вид битрейта : Постоянный
Битрейт : 224000
Битрейт : 224 Кбит/сек
Каналы : 2
Каналы : 2 канала
Расположение каналов : Front: L R
Расположение каналов : 2/0/0
Частота : 48000
Частота : 48,0 КГц
Количество образцов : 170803200
Разрешение : 16
Разрешение : 16 бит
Битовая глубина : 16
Битовая глубина : 16 бит
Метод сжатия : Lossy
Метод сжатия : С потерями
Задержка : 0
Задержка : 00:00:00.000
Задержка в оригинале : Container
Задержка в оригинале : Контейнер
Задержка видео : 0
Задержка видео : 0
Размер потока : 99635200
Размер потока : 95,0 Мбайт (6%)
Размер потока : 95 Мбайт
Размер потока : 95 Мбайт
Размер потока : 95,0 Мбайт
Размер потока : 95,02 Мбайт
Размер потока : 95,0 Мбайт (6%)
Пропорции потока : 0.05950
Язык : ru
Язык : Russian
Язык : Russian
Язык : ru
Язык : rus
Язык : ru
Default : No
Default : Нет
Forced : No
Forced : Нет
dsurmod : 0
dialnorm : -31
dialnorm/String : -31 dB
bsid : 8
dialnorm_Average : -31
dialnorm_Average/String : -31 dB
dialnorm_Minimum : -31
dialnorm_Minimum/String : -31 dB
dialnorm_Maximum : -31
dialnorm_Maximum/String : -31 dB
dialnorm_Count : 2

Аудио #2
Кол-во : 184
Кол-во потоков такого типа : 2
Тип потока : Audio
Тип потока : Аудио
Идентификатор типа потока : 1
Позиция идентификатора типа пото : 2
Идентификатор : 3
Идентификатор : 3
Уникальный идентификатор : 3045997223
Формат : AC-3
Формат/Информация : Audio Coding 3
Коммерческое название : AC-3
Расширение режима : CM (complete main)
Идентификатор кодека : A_AC3
Кодек : AC3
Кодек : AC3
Кодек/Семейство : AC3
Кодек/Информация : Dolby AC3
Продолжительность : 3558400
Продолжительность : 59 м.
Продолжительность : 59 м. 18 с. 400 мс.
Продолжительность : 59 м.
Продолжительность : 00:59:18.400
Вид битрейта : CBR
Вид битрейта : Постоянный
Битрейт : 224000
Битрейт : 224 Кбит/сек
Каналы : 2
Каналы : 2 канала
Расположение каналов : Front: L R
Расположение каналов : 2/0/0
Частота : 48000
Частота : 48,0 КГц
Количество образцов : 170803200
Разрешение : 16
Разрешение : 16 бит
Битовая глубина : 16
Битовая глубина : 16 бит
Метод сжатия : Lossy
Метод сжатия : С потерями
Задержка : 0
Задержка : 00:00:00.000
Задержка в оригинале : Container
Задержка в оригинале : Контейнер
Задержка видео : 0
Задержка видео : 0
Размер потока : 99635200
Размер потока : 95,0 Мбайт (6%)
Размер потока : 95 Мбайт
Размер потока : 95 Мбайт
Размер потока : 95,0 Мбайт
Размер потока : 95,02 Мбайт
Размер потока : 95,0 Мбайт (6%)
Пропорции потока : 0.05950
Язык : en
Язык : English
Язык : English
Язык : en
Язык : eng
Язык : en
Default : No
Default : Нет
Forced : No
Forced : Нет
dsurmod : 0
dialnorm : -31
dialnorm/String : -31 dB
bsid : 8
dialnorm_Average : -31
dialnorm_Average/String : -31 dB
dialnorm_Minimum : -31
dialnorm_Minimum/String : -31 dB
dialnorm_Maximum : -31
dialnorm_Maximum/String : -31 dB
dialnorm_Count : 2
Мы в соц сетях:
Посмотреть товар в профиле пользователя

Нажмите на изображение, чтобы увидеть в полный размер  
1 шт.
Нажмите на изображение, чтобы увидеть в полный размер  
1 шт.
Нажмите на изображение, чтобы увидеть в полный размер  
1 шт.
Нажмите на изображение, чтобы увидеть в полный размер  
1 шт.
  • Торрент
Автор: PREDATOR-DJ Хэш: ---
Добавлен: 27 сен 2016, 21:29 Приватный: Нет (DHT включён)
Статус: Проверен
Размер: 4.88 ГБ (5 236 576 759 байт)
Изменил: PREDATOR-DJ (27 сен 2016, 21:38)
Скачали: 0 (Раздающих: 0%)
Причина: http://rutracker.net/forum/viewtopic.php?t=3919072
Здоровье: 100%
Сидеров: 34 Личеров: 11
Скорость раздачи: 0 байт/сек Скорость скачивания: 0 байт/сек
Последний сидер: 1 год 1 месяц 9 дней 16 часов 8 минут 44 секунды назад Последний личер: 1 год 1 месяц 9 дней 16 часов 8 минут 44 секунды назад
Для скачивания торрента необходимо зарегистрироваться или войти на трекер.

Вернуться в Документальные фильмы | BBC, Discovery, National Geographic


Ресурс не предоставляет электронные версии произведений, а занимается лишь коллекционированием и каталогизацией ссылок, присылаемых и публикуемых на форуме нашими читателями. Если вы являетесь правообладателем какого-либо представленного материала и не желаете чтобы ссылка на него находилась в нашем каталоге, свяжитесь с нами и мы незамедлительно удалим её. Файлы для обмена на трекере предоставлены пользователями сайта, и администрация не несёт ответственности за их содержание. Просьба не заливать файлы, защищенные авторскими правами, а также файлы нелегального содержания!
cron