Порядок и Разупорядоченность | Order and Disorder (Ник Стейси / Nic Stacey) [2012, документальный, HDTV 1080p]

Это спутниковые и кабельные телеканалы которые доступны для просмотра на множестве языков и во многих странах мира. Вещание телеканалов основано на документальных передачах о науке, технологии и истории. Стиль передач каналов является научно-популярным.

Модераторы: Модераторы, Модераторы фильмов

PREDATOR-DJ Аватара пользователя
Администратор
Администратор

Раздал: 40.36 ТБ
Скачал: 3.9 ТБ
Ратио: 10.351
Сообщения: 1947

Зарегистрирован: 15 авг 2016, 12:12
В кошельке: 8,580.00
Банк: 125,216.50
Откуда: Зазеркалье
Награды: 8
Путь к журналисту (1) Админ (1) За заслуги перед форумом (1) Спасибо тебе! (1)
Админcтво в Battlefield (1) В обмен на рекламный банер (1) Голосовой чат Mumble (1) Раздал 1 Tb (1)
Заслуженная репутация: 20
НовичокНовичокНовичокНовичокНовичок

  • Постеры
Год выпуска: 2012
Страна: Великобритания
Студия: Furnace
Жанр: документальный
Продолжительность: 01:58:39
Перевод: Одноголосый закадровый
Доп. инфо о переводе: Юрий Онищенко (Logos71)
Режиссер: Ник Стейси / Nic Stacey
Дата релиза: 16 Октября 2012 (UK)

Описание: Профессор Джим Аль-Халили совершая экскурс в историю пытается разобраться в том, что такое энергия и информация, а так же о той значимости, которую они играют не только для человечества, но и для всей Вселенной в целом.

Тип релиза: HDTVRip 1080p
Контейнер: MKV
Видео: x264 CABAC High@L4.1, 1920x1080, 16:9, 25 FPS, ~5240 Kbps
Аудио: рус / Mp3, 2 канала, 48KHz, 192 Kbps
Аудио 2: анг / MPEG-2 AAC, 2 канала, 48KHz, 160 Kbps
Формат субтитров: softsub (SRT)

Фильм 1: Энергия

Джим Аль-Халили рассказывает захватывающую историю о том, как мы открыли для себя законы, которые управляют нашей Вселенной. Энергия жизненно необходима для всех нас, но что это такое на самом деле? Пытаясь найти ответ на этот вопрос, он исследует странные закономерности, которые связывают между собой абсолютно всё, начиная механизмами и живыми существами и заканчивая звездами.

Фильм 2: Информация

Джим показывает нам, как человечество научилось использовать символы, начиная с изобретения письменности до современных цифровых технологий. Важно то, что информация- это не только продукт коммуникации людей между собой, она тесно вплетена в ткань окружающей нас реальности.

General
Unique ID : 213216937173275972730929586351637916918 (0xA06816A11246D60FAB8719022B15ECF6)
Complete name : BBC_Order and Disorder Information [Logos].mkv
Format : Matroska
Format version : Version 2
File size : 2.11 GiB
Duration : 59mn 14s
Overall bit rate : 5 099 Kbps
Encoded date : UTC 2012-12-31 12:36:52
Writing application : mkvmerge v5.8.0 ('No Sleep / Pillow') built on Sep 2 2012 15:37:04
Writing library : libebml v1.2.3 + libmatroska v1.3.0
Video
ID : 1
Format : AVC
Format/Info : Advanced Video Codec
Format profile : High@L4.1
Format settings, CABAC : Yes
Format settings, ReFrames : 4 frames
Muxing mode : Header stripping
Codec ID : V_MPEG4/ISO/AVC
Duration : 59mn 14s
Width : 1 920 pixels
Height : 1 080 pixels
Display aspect ratio : 16:9
Frame rate mode : Constant
Frame rate : 25.000 fps
Color space : YUV
Chroma subsampling : 4:2:0
Bit depth : 8 bits
Scan type : Progressive
Writing library : x264 core 128 r2216 198a7ea
Encoding settings : cabac=1 / ref=4 / deblock=1:0:0 / analyse=0x3:0x113 / me=umh / subme=9 / psy=1 / psy_rd=1.00:0.00 / mixed_ref=1 / me_range=24 / chroma_me=1 / trellis=1 / 8x8dct=1 / cqm=0 / deadzone=21,11 / fast_pskip=0 / chroma_qp_offset=-2 / threads=3 / lookahead_threads=1 / sliced_threads=0 / nr=0 / decimate=1 / interlaced=0 / bluray_compat=0 / constrained_intra=0 / bframes=3 / b_pyramid=2 / b_adapt=1 / b_bias=0 / direct=1 / weightb=1 / open_gop=0 / weightp=2 / keyint=250 / keyint_min=15 / scenecut=40 / intra_refresh=0 / rc_lookahead=40 / rc=crf / mbtree=1 / crf=19.0 / qcomp=0.60 / qpmin=0 / qpmax=69 / qpstep=4 / ip_ratio=1.40 / aq=1:1.00
Default : Yes
Forced : No

Audio #1
ID : 2
Format : MPEG Audio
Format version : Version 1
Format profile : Layer 3
Muxing mode : Header stripping
Codec ID : A_MPEG/L3
Codec ID/Hint : MP3
Duration : 59mn 14s
Bit rate mode : Constant
Bit rate : 192 Kbps
Channel(s) : 2 channels
Sampling rate : 48.0 KHz
Compression mode : Lossy
Stream size : 81.4 MiB (4%)
Writing library : LAME3.99.5
Language : Russian
Default : Yes
Forced : No

Audio #2
ID : 3
Format : AAC
Format/Info : Advanced Audio Codec
Format profile : LC
Codec ID : A_AAC
Duration : 59mn 14s
Channel(s) : 2 channels
Channel positions : Front: L R
Sampling rate : 48.0 KHz
Compression mode : Lossy
Language : English
Default : No
Forced : No

Text #1
ID : 4
Format : UTF-8
Codec ID : S_TEXT/UTF8
Codec ID/Info : UTF-8 Plain Text
Language : Russian
Default : Yes
Forced : No

Text #2
ID : 5
Format : UTF-8
Codec ID : S_TEXT/UTF8
Codec ID/Info : UTF-8 Plain Text
Language : English
Default : No
Forced : No
General
Unique ID : 218583947607021623754855647053843322145 (0xA471BCAC6ABB0DF69A26A0FB2258D521)
Complete name : BBC_Order and Disorder Energy [Logos].mkv
Format : Matroska
Format version : Version 2
File size : 2.18 GiB
Duration : 59mn 25s
Overall bit rate : 5 240 Kbps
Encoded date : UTC 2012-12-31 12:30:23
Writing application : mkvmerge v5.8.0 ('No Sleep / Pillow') built on Sep 2 2012 15:37:04
Writing library : libebml v1.2.3 + libmatroska v1.3.0

Video
ID : 1
Format : AVC
Format/Info : Advanced Video Codec
Format profile : High@L4.1
Format settings, CABAC : Yes
Format settings, ReFrames : 4 frames
Muxing mode : Header stripping
Codec ID : V_MPEG4/ISO/AVC
Duration : 59mn 25s
Width : 1 920 pixels
Height : 1 080 pixels
Display aspect ratio : 16:9
Frame rate mode : Constant
Frame rate : 25.000 fps
Color space : YUV
Chroma subsampling : 4:2:0
Bit depth : 8 bits
Scan type : Progressive
Writing library : x264 core 128 r2216 198a7ea
Encoding settings : cabac=1 / ref=4 / deblock=1:0:0 / analyse=0x3:0x113 / me=umh / subme=9 / psy=1 / psy_rd=1.00:0.00 / mixed_ref=1 / me_range=24 / chroma_me=1 / trellis=1 / 8x8dct=1 / cqm=0 / deadzone=21,11 / fast_pskip=0 / chroma_qp_offset=-2 / threads=3 / lookahead_threads=1 / sliced_threads=0 / nr=0 / decimate=1 / interlaced=0 / bluray_compat=0 / constrained_intra=0 / bframes=3 / b_pyramid=2 / b_adapt=1 / b_bias=0 / direct=1 / weightb=1 / open_gop=0 / weightp=2 / keyint=250 / keyint_min=15 / scenecut=40 / intra_refresh=0 / rc_lookahead=40 / rc=crf / mbtree=1 / crf=19.0 / qcomp=0.60 / qpmin=0 / qpmax=69 / qpstep=4 / ip_ratio=1.40 / aq=1:1.00
Default : Yes
Forced : No

Audio #1
ID : 2
Format : MPEG Audio
Format version : Version 1
Format profile : Layer 3
Muxing mode : Header stripping
Codec ID : A_MPEG/L3
Codec ID/Hint : MP3
Duration : 59mn 25s
Bit rate mode : Constant
Bit rate : 192 Kbps
Channel(s) : 2 channels
Sampling rate : 48.0 KHz
Compression mode : Lossy
Stream size : 81.6 MiB (4%)
Writing library : LAME3.99.5
Language : Russian
Default : Yes
Forced : No

Audio #2
ID : 3
Format : AAC
Format/Info : Advanced Audio Codec
Format profile : LC
Codec ID : A_AAC
Duration : 59mn 25s
Channel(s) : 2 channels
Channel positions : Front: L R
Sampling rate : 48.0 KHz
Compression mode : Lossy
Language : English
Default : No
Forced : No

Text #1
ID : 4
Format : UTF-8
Codec ID : S_TEXT/UTF8
Codec ID/Info : UTF-8 Plain Text
Language : Russian
Default : Yes
Forced : No

Text #2
ID : 5
Format : UTF-8
Codec ID : S_TEXT/UTF8
Codec ID/Info : UTF-8 Plain Text
Language : English
Default : No
Forced : No



Мы в соц сетях:
Посмотреть товар в профиле пользователя

Нажмите на изображение, чтобы увидеть в полный размер  
1 шт.
Нажмите на изображение, чтобы увидеть в полный размер  
1 шт.
Нажмите на изображение, чтобы увидеть в полный размер  
1 шт.
Нажмите на изображение, чтобы увидеть в полный размер  
1 шт.
  • Торрент
Автор: PREDATOR-DJ Хэш: ---
Добавлен: 24 сен 2016, 17:13 Приватный: Нет (DHT включён)
Статус: Проверен
Размер: 4.29 ГБ (4 601 546 797 байт)
Изменил: PREDATOR-DJ (24 сен 2016, 17:15)
Скачали: 2 (Раздающих: 0%)
Причина: http://rutracker.net/forum/viewtopic.php?t=4300967
Здоровье: 100%
Сидеров: 20 Личеров: 7
Скорость раздачи: 0 байт/сек Скорость скачивания: 0 байт/сек
Последний сидер: 6 месяцев 28 дней 17 часов 6 минут 50 секунд назад Последний личер: 6 месяцев 28 дней 17 часов 6 минут 50 секунд назад
Для скачивания торрента необходимо зарегистрироваться или войти на трекер.

Вернуться в Документальные фильмы | BBC, Discovery, National Geographic


Ресурс не предоставляет электронные версии произведений, а занимается лишь коллекционированием и каталогизацией ссылок, присылаемых и публикуемых на форуме нашими читателями. Если вы являетесь правообладателем какого-либо представленного материала и не желаете чтобы ссылка на него находилась в нашем каталоге, свяжитесь с нами и мы незамедлительно удалим её. Файлы для обмена на трекере предоставлены пользователями сайта, и администрация не несёт ответственности за их содержание. Просьба не заливать файлы, защищенные авторскими правами, а также файлы нелегального содержания!
cron