Бокс. Бой за титул чемпиона мира. Флойд Мейвезер - Конор МакГрегор (27.08.2017) HDTV [H.264/1080i]

Все что относится к спорту или околоспортивным темам.

Модераторы: Модераторы, Модераторы спорта

PREDATOR-DJ Аватара пользователя
Администратор
Администратор

Раздал: 40.41 ТБ
Скачал: 3.9 ТБ
Ратио: 10.363
Сообщения: 1949

Зарегистрирован: 15 авг 2016, 12:12
В кошельке: 8,582.00
Банк: 137,733.50
Откуда: Зазеркалье
Награды: 8
Путь к журналисту (1) Админ (1) За заслуги перед форумом (1) Спасибо тебе! (1)
Админcтво в Battlefield (1) В обмен на рекламный банер (1) Голосовой чат Mumble (1) Раздал 1 Tb (1)
Заслуженная репутация: 20
НовичокНовичокНовичокНовичокНовичок

  • Постеры
Производство: США / Showtime
Телекомпания: Первый HD
Жанр: Спорт

Описание: Первый канал представляет прямую онлайн-трансляцию из Лас-Вегаса, где пройдет самый ожидаемый поединок: на ринге сойдутся 12-кратный чемпион мира по боксу Флойд Мейвезер и боец смешанных единоборств Конор МакГрегор. Бой будет вестись по правилам английского бокса в весовой категории 69,8 кг. Этот поединок уже называют "боем века" и одним из самых кассовых боксерских боев в истории. На ринге встретятся один из самых титулованных боксеров, еще ни разу не побежденный американец Флойд Мейвезер, и чемпион UFC в легком весе ирландец Конор МакГрегор. МакГрегор уже пообещал нокаутировать легенду бокса до конца четвертого раунда - эксперты уверены, что только нокаут может привести ирландца к победе. В то, что МакГрегору удастся победить Мейвезера по очкам, практически никто не верит.

Релиз от: Маrilуn Моnrое
Продолжительность: 01:14:52
Качество видео: HDTV
Язык озвучки: Русский (Александр Садоков)
Субтитры: Отсутствуют

Видео: AVC/H.264, 1920x1080, 7767 Kbps
Аудио 1: MP2, 2.0, 192 Kbps
Аудио 2: AAC, 5.1, 317 Kbps
Код: Выделить всё
Общее
Полное имя                               : Флойд Мейвезер - Конор МакГрегор.mkv
Формат                                   : Matroska
Версия формата                           : Version 4 / Version 2
Размер файла                             : 4,33 Гбайт
Продолжительность                        : 1 ч. 14 м.
Общий поток                              : 8281 Кбит/сек
Дата кодирования                         : UTC 2017-08-27 05:03:58
Программа кодирования                    : mkvmerge v12.0.0 ('Trust / Lust') 32bit
Библиотека кодирования                   : libebml v1.3.4 + libmatroska v1.4.5

Видео
Идентификатор                            : 1
Формат                                   : AVC
Формат/Информация                        : Advanced Video Codec
Профиль формата                          : Main@L4
Параметр CABAC формата                   : Да
Параметр ReFrames формата                : 4 кадра
Идентификатор кодека                     : V_MPEG4/ISO/AVC
Продолжительность                        : 1 ч. 14 м.
Битрейт                                  : 7767 Кбит/сек
Ширина                                   : 1920 пикселей
Высота                                   : 1080 пикселей
Соотношение сторон                       : 16:9
Режим частоты кадров                     : Переменный
Частота кадров                           : 50,000 кадров/сек
Частота кадров в оригинале               : 25,000 кадров/сек
Стандарт вещания                         : Component
Цветовое пространство                    : YUV
Субдискретизация насыщенности            : 4:2:0
Битовая глубина                          : 8 бит
Тип развёртки                            : Чересстрочная
Метод сохранения типа развёртки          : Раздельные поля
Порядок развёртки                        : Верхнее поле первое
Бит/(Пиксели*Кадры)                      : 0.075
Размер потока                            : 4,06 Гбайт (94%)
Заголовок                                : Флойд Мейвезер - Конор МакГрегор (2017)
Язык                                     : English
Default                                  : Да
Forced                                   : Нет

Аудио #1
Идентификатор                            : 2
Формат                                   : MPEG Audio
Версия формата                           : Version 1
Профиль формата                          : Layer 2
Идентификатор кодека                     : A_MPEG/L2
Идентификатор кодека/Подсказка           : MP2
Продолжительность                        : 1 ч. 14 м.
Вид битрейта                             : Постоянный
Битрейт                                  : 192 Кбит/сек
Каналы                                   : 2 канала
Частота                                  : 48,0 КГц
Частота кадров                           : 41,667 кадра/сек (1152 spf)
Метод сжатия                             : С потерями
Задержка видео                           : 40 мс.
Размер потока                            : 103 Мбайт (2%)
Заголовок                                : MP2 (Оригинал)
Язык                                     : Russian
Default                                  : Да
Forced                                   : Нет

Аудио #2
Идентификатор                            : 3
Формат                                   : AAC
Формат/Информация                        : Advanced Audio Codec
Профиль формата                          : LC
Идентификатор кодека                     : A_AAC
Продолжительность                        : 1 ч. 14 м.
Битрейт                                  : 317 Кбит/сек
Каналы                                   : 6 каналов
Расположение каналов                     : Front: L C R, Side: L R, LFE
Частота                                  : 48,0 КГц
Частота кадров                           : 46,875 кадров/сек (1024 spf)
Метод сжатия                             : С потерями
Задержка видео                           : 49 мс.
Размер потока                            : 170 Мбайт (4%)
Заголовок                                : AAC (Оригинал)
Язык                                     : Russian
Default                                  : Нет
Forced                                   : Нет
» 40-летний Флойд Мейвезер - легенда мирового бокса, 12-кратный чемпион мира, на его счету 49 боев, в которых он не потерпел ни одного поражения. Обладатель всех мыслимых наград в различных весовых категориях, бронзовый призер Олимпиады в Атланте, самый высокооплачиваемый боксер в истории профессионального бокса.
» 29-летний ирландец Конор Макгрегор - один из самых известных бойцов смешанных единоборств. Действующий чемпион UFC в легком весе. О своем желании попробовать свои силы в профессиональном боксе Конор заявил в мае 2016 года.

Мы в соц сетях:
Посмотреть товар в профиле пользователя

Нажмите на изображение, чтобы увидеть в полный размер  
1 шт.
Нажмите на изображение, чтобы увидеть в полный размер  
1 шт.
Нажмите на изображение, чтобы увидеть в полный размер  
1 шт.
Нажмите на изображение, чтобы увидеть в полный размер  
1 шт.
  • Торрент
Автор: PREDATOR-DJ Хэш: ---
Добавлен: 27 авг 2017, 23:24 Приватный: Нет (DHT включён)
Статус: Проверен
Размер: 4.33 ГБ (4 649 977 887 байт)
Изменил:
---
Скачали: 13 (Раздающих: 100%)
Причина:
---
Здоровье: 100%
Сидеров: 66 Личеров: 3
Скорость раздачи: 0 байт/сек Скорость скачивания: 0 байт/сек
Последний сидер: 1 месяц 19 часов 49 минут 49 секунд назад Последний личер: 1 месяц 19 часов 49 минут 49 секунд назад
Для скачивания торрента необходимо зарегистрироваться или войти на трекер.

Вернуться в ФУТБОЛ, ХОККЕЙ, ФОРМУЛА 1 и ДР ВИДЫ СПОРТА


Ресурс не предоставляет электронные версии произведений, а занимается лишь коллекционированием и каталогизацией ссылок, присылаемых и публикуемых на форуме нашими читателями. Если вы являетесь правообладателем какого-либо представленного материала и не желаете чтобы ссылка на него находилась в нашем каталоге, свяжитесь с нами и мы незамедлительно удалим её. Файлы для обмена на трекере предоставлены пользователями сайта, и администрация не несёт ответственности за их содержание. Просьба не заливать файлы, защищенные авторскими правами, а также файлы нелегального содержания!
cron