Огонек-Огниво (2020) WEB-DLRip-AVC

Мультфильмы, включая мультипликационные сериалы.

Модераторы: Модераторы, Модераторы фильмов

Sonik
Модератор
Модератор

Раздал: 3.65 ТБ
Скачал: 1.9 ТБ
Ратио: 1.921
Сообщения: 662

Зарегистрирован: 13 сен 2017, 00:19
В кошельке: 9,453.00
Награды: 5
Путь к журналисту (1) Журналист (1) Старший журналист (1) Богат как фараон (1)
С Днем Рождения! (1)
Заслуженная репутация: 4
  • Постеры
Информация о фильме
Название: Огонек-Огниво
Год выхода: 2020
Жанр: Мультфильм
Режиссер: Константин Щекин
Роли озвучивают: Наталья Терешкова, Эдгард Запашный, Пётр Коврижных, Ирина Яковлева, Сергей Бурунов, Юрий Аскаров, Александр Олешко, Алексей Елистратов, Никита Прозоровский, Олег Есенин

О фильме: История начинается с доброго, но бедного Гончара, который однажды находит Огниво — магический артефакт, делающий его владельца богатым, но взамен насылающий смертельное проклятье. Спасти Гончара может только самоотверженность главной героини — девушка по имени Огонёк. Она, не раздумывая, бросается на выручку друга, помогая ему понять, что любовь и честный труд важнее денег и власти.

Страна: Россия
Студия: "VVERH" Film company
Продолжительность: 01:28:04
Перевод: Не требуется

Файл
Качество: WEB-DLRip-AVC
Формат: MKV
Кодек: MPEG-4 AVC
Видео: 1024x576 (16:9), 25 fps, MPEG-4 AVC ~ 2178 Кbps avg, 0.148 bit/pixel
Аудио: AC3, 48 kHz, 2 ch, ~192.00 kbps avg | русский |
Субтитры: Отсутствуют

Общее
Уникальный идентификатор : 64582399566999138584367828683031270647 (0x30961E22F0B6BC9A322C078ADBA754F7)
Полное имя : Ogonek.Ognivoy.2020.WEB_DLRip.1.46Gb.x264.mkv
Формат : Matroska
Версия формата : Version 4
Размер файла : 1,46 Гбайт
Продолжительность : 1 ч. 28 м.
Общий поток : 2 371 Кбит/сек
Название фильма : Огонек-Огниво (2020)
Дата кодирования : UTC 2020-07-06 20:34:04
Программа кодирования : mkvmerge v47.0.0 ('Black Flag') 64-bit
Библиотека кодирования : libebml v1.3.10 + libmatroska v1.5.2
Обложка : Yes
Attachments : cover.jpg / front.jpg
Видео
Идентификатор : 1
Формат : AVC
Формат/Информация : Advanced Video Codec
Профиль формата : High@L4.1
Настройки формата : CABAC / 12 Ref Frames
Параметр CABAC формата : Да
Параметр RefFrames формата : 12 кадров
Идентификатор кодека : V_MPEG4/ISO/AVC
Продолжительность : 1 ч. 28 м.
Битрейт : 2 178 Кбит/сек
Ширина : 1 024 пикселя
Высота : 576 пикселей
Соотношение сторон : 16:9
Режим частоты кадров : Постоянный
Частота кадров : 25,000 кадров/сек
Цветовое пространство : YUV
Субдискретизация насыщенности : 4:2:0
Битовая глубина : 8 бит
Тип развёртки : Прогрессивная
Бит/(Пиксели*Кадры) : 0.148
Размер потока : 1,34 Гбайт (92%)
Заголовок : #stillet
Библиотека кодирования : x264 core 152 r2851bm ba24899
Настройки программы : cabac=1 / ref=12 / deblock=1:-3:-3 / analyse=0x3:0x113 / me=umh / subme=10 / psy=1 / psy_rd=1.00:0.15 / mixed_ref=1 / me_range=32 / chroma_me=1 / trellis=2 / 8x8dct=1 / cqm=0 / deadzone=21,11 / fast_pskip=0 / chroma_qp_offset=-3 / threads=12 / lookahead_threads=3 / sliced_threads=0 / nr=0 / decimate=0 / interlaced=0 / bluray_compat=0 / constrained_intra=0 / bframes=9 / b_pyramid=2 / b_adapt=2 / b_bias=0 / direct=3 / weightb=1 / open_gop=0 / weightp=2 / keyint=250 / keyint_min=25 / scenecut=40 / intra_refresh=0 / rc=2pass / mbtree=0 / bitrate=2178 / ratetol=1.0 / qcomp=0.60 / qpmin=0 / qpmax=69 / qpstep=4 / cplxblur=20.0 / qblur=0.5 / ip_ratio=1.40 / pb_ratio=1.30 / aq=1:1.00
Язык : English
Default : Да
Forced : Нет
Аудио
Идентификатор : 2
Формат : AC-3
Формат/Информация : Audio Coding 3
Коммерческое название : Dolby Digital
Идентификатор кодека : A_AC3
Продолжительность : 1 ч. 28 м.
Вид битрейта : Постоянный
Битрейт : 192 Кбит/сек
Каналы : 2 канала
Channel layout : L R
Частота : 48,0 КГц
Частота кадров : 31,250 кадров/сек (1536 SPF)
Метод сжатия : С потерями
Размер потока : 121 Мбайт (8%)
Язык : Russian
Default : Да
Forced : Нет
  • Торрент
Автор: Sonik Хэш: ---
Добавлен: 13 июл 2020, 14:03 Приватный: Нет (DHT включён)
Статус: Проверен
Размер: 1.46 ГБ (1 565 847 384 байт)
Изменил: Sonik (13 июл 2020, 14:03)
Скачали: 1 (Раздающих: 0%)
Причина:
---
Здоровье: 100%
Сидеров: 1 Личеров: 0
Скорость раздачи: 0 байт/сек Скорость скачивания: 0 байт/сек
Последний сидер: 3 месяца 11 дней 8 часов 28 минут 43 секунды назад Последний личер: 4 месяца 16 дней 12 часов 12 минут 58 секунд назад
Для скачивания торрента необходимо зарегистрироваться или войти на трекер.

Вернуться в Мультфильмы | Отечественные


cron
Ресурс не предоставляет электронные версии произведений, а занимается лишь коллекционированием и каталогизацией ссылок, присылаемых и публикуемых на форуме нашими читателями. Если вы являетесь правообладателем какого-либо представленного материала и не желаете чтобы ссылка на него находилась в нашем каталоге, свяжитесь с нами и мы незамедлительно удалим её. Файлы для обмена на трекере предоставлены пользователями сайта, и администрация не несёт ответственности за их содержание. Просьба не заливать файлы, защищенные авторскими правами, а также файлы нелегального содержания!
cron