Приключения капитана Врунгеля (1979) BDRip [H.264/1080p-LQ] (фанатская версия) [hand made]

Мультфильмы, включая мультипликационные сериалы.

Модераторы: Модераторы, Модераторы фильмов

alex11 Аватара пользователя
Модератор
Модератор

Раздал: 12.98 ТБ
Скачал: 50.43 ГБ
Ратио: 263.639
Сообщения: 1287

Зарегистрирован: 10 апр 2017, 07:25
В кошельке: 565.00
Банк: 79,252.12
Награды: 10
Путь к журналисту (1) Журналист (1) Старший журналист (1) За заслуги перед форумом (1)
Богат как фараон (1) Я сама щедрость! (1) В обмен на рекламный банер (1) Раздал 1 Tb (1)
Раздал 5 Tb (1) С Днем Рождения! (1)
Заслуженная репутация: 17
НовичокНовичокНовичокНовичок
  • Постеры
Производство: СССР, Киевнаучфильм
Жанр: Рисованная анимация, Детский, Приключения

Режиссер: Давид Черкасский

Описание:
Христофору Бонифатьевичу Врунгелю, известному мореходу, профессору навигации, приходит приглашение участвовать в международной парусной регате. Специально для соревнований помощник Врунгеля — матрос Лом — построил яхту «Победа», но во время отплытия две первые буквы её названия отпали с кормовой доски, и она получила название «Беда»..


Возраст: 6+ (зрителям, достигшим 6 лет)

Релиз от: 303 faneditgroup

Продолжительность: 01:57:00
Качество видео: BDRip
Субтитры: отсутствуют

Видео: AVC/H.264, 1920х1080, ~4168 kbps
Аудио: AAC, 2 ch, 127 Kbps


В данной версии ТОЛЬКО убраны межсерийные титры и рестроспекции. Таким образом мультсериал превращен в полнометражный мультфильм. Все остальное без изменений.

Общее
Уникальный идентификатор : 308689873525292951654515306847667678771 (0xE83B81D0FCD076D87E077ACE5766EE33)
Полное имя : H:\vrungel edit\Vrungel_Fan_Edit_303studio.mkv
Формат : Matroska
Версия формата : Version 4
Размер файла : 3,53 Гбайт
Продолжительность : 1 ч. 57 м.
Режим общего битрейта : Переменный
Общий поток : 4297 Кбит/сек
Дата кодирования : UTC 2018-11-28 17:43:37
Программа кодирования : mkvmerge v28.2.0 ('The Awakening') 64-bit
Библиотека кодирования : libebml v1.3.6 + libmatroska v1.4.9

Видео
Идентификатор : 2
Формат : AVC
Формат/Информация : Advanced Video Codec
Профиль формата : Baseline@L5
Настройки формата : 1 Ref Frames
Параметр CABAC формата : Нет
Параметр RefFrames формата : 1 кадр
Параметр GOP формата : M=1, N=30
Идентификатор кодека : V_MPEG4/ISO/AVC
Продолжительность : 1 ч. 57 м.
Вид битрейта : Переменный
Битрейт : 4168 Кбит/сек
Максимальный битрейт : 4800 Кбит/сек
Ширина : 1920 пикселей
Высота : 1080 пикселей
Соотношение сторон : 16:9
Режим частоты кадров : Постоянный
Частота кадров : 25,000 кадров/сек
Стандарт вещания : PAL
Цветовое пространство : YUV
Субдискретизация насыщенности : 4:2:0
Битовая глубина : 8 бит
Тип развёртки : Прогрессивная
Бит/(Пиксели*Кадры) : 0.080
Размер потока : 3,43 Гбайт (97%)
Язык : Russian
Default : Да
Forced : Нет
Цветовой диапазон : Limited

Аудио
Идентификатор : 1
Формат : AAC LC
Формат/Информация : Advanced Audio Codec Low Complexity
Идентификатор кодека : A_AAC-2
Продолжительность : 1 ч. 57 м.
Битрейт : 127 Кбит/сек
Каналы : 2 канала
Channel layout : L R
Частота : 24,0 КГц
Частота кадров : 23,438 кадра/сек (1024 SPF)
Метод сжатия : С потерями
Размер потока : 107 Мбайт (3%)
Язык : Russian
Default : Да
Forced : Нет
  • Торрент
Автор: alex11 Хэш: ---
Добавлен: 01 дек 2018, 00:19 Приватный: Нет (DHT включён)
Статус: Проверен
Размер: 3.53 ГБ (3 794 660 001 байт)
Изменил:
---
Скачали: 3 (Раздающих: 0%)
Причина:
---
Здоровье: 100%
Сидеров: 13 Личеров: 1
Скорость раздачи: 0 байт/сек Скорость скачивания: 0 байт/сек
Последний сидер: 1 день 12 часов 38 минут 17 секунд назад Последний личер: 1 день 12 часов 38 минут 17 секунд назад
Для скачивания торрента необходимо зарегистрироваться или войти на трекер.

Вернуться в Мультфильмы | Отечественные


Ресурс не предоставляет электронные версии произведений, а занимается лишь коллекционированием и каталогизацией ссылок, присылаемых и публикуемых на форуме нашими читателями. Если вы являетесь правообладателем какого-либо представленного материала и не желаете чтобы ссылка на него находилась в нашем каталоге, свяжитесь с нами и мы незамедлительно удалим её. Файлы для обмена на трекере предоставлены пользователями сайта, и администрация не несёт ответственности за их содержание. Просьба не заливать файлы, защищенные авторскими правами, а также файлы нелегального содержания!
cron