Два хвоста (2018) WEB-DLRip [H.264]

Мультфильмы, включая мультипликационные сериалы.

Модераторы: Модераторы, Модераторы фильмов

alex11 Аватара пользователя
Модератор
Модератор

Раздал: 12.98 ТБ
Скачал: 50.43 ГБ
Ратио: 263.639
Сообщения: 1287

Зарегистрирован: 10 апр 2017, 07:25
В кошельке: 565.00
Банк: 105,467.12
Награды: 10
Путь к журналисту (1) Журналист (1) Старший журналист (1) За заслуги перед форумом (1)
Богат как фараон (1) Я сама щедрость! (1) В обмен на рекламный банер (1) Раздал 1 Tb (1)
Раздал 5 Tb (1) С Днем Рождения! (1)
Заслуженная репутация: 17
НовичокНовичокНовичокНовичок
  • Постеры
Производство: Россия / Licensing Brands
Жанр: Детский

Режиссер: Наталья Нилова, Виктор Азеев
Персонажи: Сергей Бурунов, Диомид Виноградов, Ирина Киреева, Лина Иванова, Данил Щебланов, Дэниел Медведев

Описание:
История о невероятных приключениях двух друзей — Кота Макса и Бобра Боба. Трудно найти более непохожих друг на друга героев! «Правильный» Боб стремится к тишине и покою, а непоседа Макс хочет стать знаменитым и прославиться на весь мир. И, тем не менее, именно этой парочке предстоит отразить нашествие инопланетных охотников за животными и прославиться на всю галактику! Вас ждут шутки, аттракционы и погони на летающих тарелках. Ключ на старт! Полетели!


Возраст: 6+ (зрителям, достигшим 6 лет)
Дата российской премьеры: 31 мая 2018, «Каропрокат»


Продолжительность: 01:14:30
Качество видео: WEB-DLRip
Субтитры: Отсутствуют

Видео: AVC/H.264, 1024х576, ~3038 Kbps
Аудио: AC3, 6 ch, 384 Kbps

Код: Выделить всё

ОбщееОбщее
Уникальный идентификатор                 : 216509097235227846492569239969255835660 (0xA2E222A6EFE2CCF7A3958AAAD362C80C)Уникальный
Формат                                   : Matroska
Версия формата                           : Version 2
Размер файла                             : 1,78 Гбайт
Продолжительность                        : 1 ч. 14 м.
Общий поток                              : 3422 Кбит/сек
Название фильма                          : Два хвоста 2018 from ExKinoRay
Дата кодирования                         : UTC 2018-07-04 01:10:31
Программа кодирования                    : mkvmerge v5.6.0 ('Kenya Kane') built on May 27 2012 16:44:04
Библиотека кодирования                   : libebml v1.2.3 + libmatroska v1.3.0

Видео
Идентификатор                            : 1
Формат                                   : AVC
Формат/Информация                        : Advanced Video Codec
Профиль формата                          : High@L4.1
Настройки формата                        : CABAC / 10 Ref Frames
Параметр CABAC формата                   : Да
Параметр RefFrames формата               : 10 кадров
Идентификатор кодека                     : V_MPEG4/ISO/AVC
Продолжительность                        : 1 ч. 14 м.
Битрейт                                  : 3038 Кбит/сек
Ширина                                   : 1024 пикселя
Высота                                   : 576 пикселей
Соотношение сторон                       : 16:9
Режим частоты кадров                     : Постоянный
Частота кадров                           : 24,000 кадра/сек
Цветовое пространство                    : YUV
Субдискретизация насыщенности            : 4:2:0
Битовая глубина                          : 8 бит
Тип развёртки                            : Прогрессивная
Бит/(Пиксели*Кадры)                      : 0.215
Размер потока                            : 1,55 Гбайт (87%)
Заголовок                                : Enigma
Библиотека кодирования                   : x264 core 152 r2851 ba24899
Настройки программы                      : cabac=1 / ref=10 / deblock=1:-1:-1 / analyse=0x3:0x113 / me=umh / subme=10 / psy=1 / psy_rd=1.00:0.05 / mixed_ref=1 / me_range=32 / chroma_me=1 / trellis=2 / 8x8dct=1 / cqm=0 / deadzone=21,11 / fast_pskip=0 / chroma_qp_offset=-3 / threads=12 / lookahead_threads=3 / sliced_threads=0 / nr=0 / decimate=0 / interlaced=0 / bluray_compat=0 / constrained_intra=0 / bframes=10 / b_pyramid=2 / b_adapt=2 / b_bias=0 / direct=3 / weightb=1 / open_gop=0 / weightp=2 / keyint=240 / keyint_min=24 / scenecut=40 / intra_refresh=0 / rc_lookahead=40 / rc=2pass / mbtree=0 / bitrate=3038 / ratetol=1.0 / qcomp=0.60 / qpmin=0 / qpmax=51 / qpstep=4 / cplxblur=20.0 / qblur=0.5 / vbv_maxrate=50000 / vbv_bufsize=62500 / nal_hrd=none / filler=0 / ip_ratio=1.30 / pb_ratio=1.20 / aq=1:1.00
Default                                  : Да
Forced                                   : Нет
Цветовой диапазон                        : Limited
Основные цвета                           : BT.709
Характеристики трансфера                 : BT.709
Коэффициенты матрицы                     : BT.709

Аудио
Идентификатор                            : 2
Формат                                   : AC-3
Формат/Информация                        : Audio Coding 3
Коммерческое название                    : Dolby Digital
Идентификатор кодека                     : A_AC3
Продолжительность                        : 1 ч. 14 м.
Вид битрейта                             : Постоянный
Битрейт                                  : 384 Кбит/сек
Каналы                                   : 6 каналов
Channel layout                           : L R C LFE Ls Rs
Частота                                  : 48,0 КГц
Частота кадров                           : 31,250 кадров/сек (1536 SPF)
Битовая глубина                          : 16 бит
Метод сжатия                             : С потерями
Размер потока                            : 205 Мбайт (11%)
Язык                                     : Russian
ServiceKind/String                       : Complete Main
Default                                  : Да
Forced                                   : Нет

Меню
00:00:00.000                             : en:Глава 1
00:03:00.875                             : en:Глава 2
00:11:49.250                             : en:Глава 3
00:16:13.916                             : en:Глава 4
00:22:17.916                             : en:Глава 5
00:30:12.416                             : en:Глава 6
00:36:35.791                             : en:Глава 7
00:43:53.082                             : en:Глава 8
00:51:04.165                             : en:Глава 9
00:57:06.831                             : en:Глава 10
01:05:52.081                             : en:Глава 11
  • Торрент
Автор: alex11 Хэш: ---
Добавлен: 29 сен 2018, 01:25 Приватный: Нет (DHT включён)
Статус: Проверен
Размер: 1.78 ГБ (1 912 325 138 байт)
Изменил:
---
Скачали: 4 (Раздающих: 0%)
Причина:
---
Здоровье: ???%
Сидеров: 0 Личеров: 1
Скорость раздачи: 0 байт/сек Скорость скачивания: 0 байт/сек
Последний сидер: 1 год 8 месяцев 6 дней 22 часа 43 минуты 37 секунд назад Последний личер: 4 месяца 16 дней 18 часов 50 минут 33 секунды назад
Для скачивания торрента необходимо зарегистрироваться или войти на трекер.

Вернуться в Мультфильмы | Отечественные


cron
Ресурс не предоставляет электронные версии произведений, а занимается лишь коллекционированием и каталогизацией ссылок, присылаемых и публикуемых на форуме нашими читателями. Если вы являетесь правообладателем какого-либо представленного материала и не желаете чтобы ссылка на него находилась в нашем каталоге, свяжитесь с нами и мы незамедлительно удалим её. Файлы для обмена на трекере предоставлены пользователями сайта, и администрация не несёт ответственности за их содержание. Просьба не заливать файлы, защищенные авторскими правами, а также файлы нелегального содержания!
cron