Маша и Медведь: Сюрприз! Сюрприз! (2017) WEB-DL [H.264/1080p-LQ] (Серия 63)

Мультфильмы, включая мультипликационные сериалы.

Модераторы: Модераторы, Модераторы фильмов

Escobar Аватара пользователя
Модератор
Модератор

Раздал: 3.41 ТБ
Скачал: 519.88 ГБ
Ратио: 6.712
Сообщения: 545

Зарегистрирован: 21 сен 2016, 18:13
В кошельке: -20.00
Банк: 55,978.55
Награды: 10
Путь к журналисту (1) Журналист (1) Старший журналист (1) Богат как фараон (1)
Ветеран Battlefield 3 (1) Ветеран COD MW2-MW3 (1) Админство в Call of Duty (1) Голосовой чат Mumble (1)
Supernova Forever! (1) Раздал 1 Tb (1)
Заслуженная репутация: 11
НовичокНовичокНовичок

  • Постеры
Производство: Россия / Студия "Анимаккорд"
Жанр: Детский, комедия, семейный

Режиссер: Олег Кузовков, Владислав Байрамгулов, Наталья Мальгина
Персонажи: Алина Кукушкина, Эдуард Назаров, Борис Кутневич

Описание:
Волки придумывают новый способ добычи пропитания - самый надёжный и экологически чистый! Они воруют петуха с птицефабрики в надежде на куриные яйца. В это самое время Маша и Заяц готовятся к Пасхе и радуют своих друзей пасхальными яйцами. Все очень рады подаркам, и только волкам не до смеха… впрочем, может и им повезёт в этот раз?



Возраст: 0+ (для любой зрительской аудитории)

Продолжительность: 00:07:32
Качество видео: WEB-DL
Субтитры: Отсутствуют

Видео: AVC/H.264, 1920x1080 (16:9), ~3498 Kbps
Аудио: AC3, 2 ch, 192 Kbps
Код: Выделить всё
Общее
Уникальный идентификатор                 : 226743219816924522439446095149113956737 (0xAA9527DA33396E198EC416180DB25981)
Полное имя                               : D:\Маша и Медведь - Сюрприз! Сюрприз! (Серия 63).mkv
Формат                                   : Matroska
Версия формата                           : Version 4 / Version 2
Размер файла                             : 200 Мбайт
Продолжительность                        : 7 м. 33 с.
Общий поток                              : 3692 Кбит/сек
Дата кодирования                         : UTC 2017-04-07 12:17:31
Программа кодирования                    : mkvmerge v10.0.0 ('To Drown In You') 64bit
Библиотека кодирования                   : libebml v1.3.4 + libmatroska v1.4.5 / Lavf57.25.100

Видео
Идентификатор                            : 1
Формат                                   : AVC
Формат/Информация                        : Advanced Video Codec
Профиль формата                          : High@L4
Параметр CABAC формата                   : Да
Параметр ReFrames формата                : 2 кадра
Идентификатор кодека                     : V_MPEG4/ISO/AVC
Продолжительность                        : 7 м. 33 с.
Битрейт                                  : 3498 Кбит/сек
Ширина                                   : 1920 пикселей
Высота                                   : 1080 пикселей
Соотношение сторон                       : 16:9
Режим частоты кадров                     : Постоянный
Частота кадров                           : 25,000 кадров/сек
Цветовое пространство                    : YUV
Субдискретизация насыщенности            : 4:2:0
Битовая глубина                          : 8 бит
Тип развёртки                            : Прогрессивная
Бит/(Пиксели*Кадры)                      : 0.067
Размер потока                            : 189 Мбайт (95%)
Default                                  : Да
Forced                                   : Нет
Цветовой диапазон                        : Limited
Основные цвета                           : BT.709
Характеристики трансфера                 : BT.709
Коэффициенты матрицы                     : BT.709

Аудио
Идентификатор                            : 2
Формат                                   : AC-3
Формат/Информация                        : Audio Coding 3
Параметр Endianness формата              : Big
Идентификатор кодека                     : A_AC3
Продолжительность                        : 7 м. 33 с.
Вид битрейта                             : Постоянный
Битрейт                                  : 192 Кбит/сек
Каналы                                   : 2 канала
Расположение каналов                     : Front: L R
Частота                                  : 44,1 КГц
Частота кадров                           : 28,711 кадров/сек (1536 spf)
Битовая глубина                          : 16 бит
Метод сжатия                             : С потерями
Задержка видео                           : -40 мс.
Размер потока                            : 10,4 Мбайт (5%)
ServiceKind/String                       : Complete Main
Default                                  : Да
Forced                                   : Нет
  • Торрент
Автор: Escobar Хэш: ---
Добавлен: 08 апр 2017, 05:22 Приватный: Нет (DHT включён)
Статус: Проверен
Размер: 199.72 МБ (209 424 418 байт)
Изменил: Escobar (08 апр 2017, 05:24)
Скачали: 1 (Раздающих: 0%)
Причина:
---
Здоровье: 100%
Сидеров: 21 Личеров: 2
Скорость раздачи: 0 байт/сек Скорость скачивания: 0 байт/сек
Последний сидер: 1 день 13 часов 46 минут 2 секунды назад Последний личер: 1 день 13 часов 46 минут 2 секунды назад
Для скачивания торрента необходимо зарегистрироваться или войти на трекер.

Вернуться в Мультфильмы | Отечественные


Ресурс не предоставляет электронные версии произведений, а занимается лишь коллекционированием и каталогизацией ссылок, присылаемых и публикуемых на форуме нашими читателями. Если вы являетесь правообладателем какого-либо представленного материала и не желаете чтобы ссылка на него находилась в нашем каталоге, свяжитесь с нами и мы незамедлительно удалим её. Файлы для обмена на трекере предоставлены пользователями сайта, и администрация не несёт ответственности за их содержание. Просьба не заливать файлы, защищенные авторскими правами, а также файлы нелегального содержания!
cron