Остаться в живых (2018) WEBRip (серии 1-6 из 6)

Обожаете отечественные сериалы смотреть ? Тогда вам в этот раздел.

Модераторы: Модераторы, Модераторы фильмов

alex11 Аватара пользователя
Модератор
Модератор

Раздал: 12.98 ТБ
Скачал: 50.43 ГБ
Ратио: 263.639
Сообщения: 1287

Зарегистрирован: 10 апр 2017, 07:25
В кошельке: 565.00
Банк: 79,252.12
Награды: 10
Путь к журналисту (1) Журналист (1) Старший журналист (1) За заслуги перед форумом (1)
Богат как фараон (1) Я сама щедрость! (1) В обмен на рекламный банер (1) Раздал 1 Tb (1)
Раздал 5 Tb (1) С Днем Рождения! (1)
Заслуженная репутация: 17
НовичокНовичокНовичокНовичок
  • Постеры
Производство: Россия / Производство ООО "Стар Медиа Дистрибьюшн", ВГТРК
Жанр: драма, военный

Режиссер: Андрей Малюков
Актеры: Вера Панфилова, Михаил Пореченков, Егор Корешков, Александр Горбатов, Дирк Мартенс, Денис Константинов, Сослан Фидаров, Юрий Уткин, Юрий Титов, Олег Мазуров и др.

Описание:
Осень 1941 года. Немецкие войска продвигаются к Москве.
Старшина Петр Стрельченко вместе с военным инженером Борисом Жихаревым во время боя с немцами собираются взорвать стратегически важную для врага плотину. Но попытка срывается. Спасая Петру жизнь, Борис в последний момент не решается нажать на рычаг и, в итоге, оказывается в плену.


Возраст: 12+ (зрителям, достигшим 12 лет)
Дата российской премьеры: 9 мая 2018 (Россия-1)


Продолжительность: ~00:48:00 серия
Качество видео: WEBRip

Видео: Xvid, 720x400 (16:9), ~1776 Kbps
Аудио: AC3, 2 ch, 192 kbps


Общее
Полное имя : D:\Мои фильмы\Ostat'sja_v_zhivyh_1-6iz6_2018_XviD_WEBRip\Ostat'sja_v_zhivyh_1.avi
Формат : AVI
Формат/Информация : Audio Video Interleave
Размер файла : 746 Мбайт
Продолжительность : 52 м. 42 с.
Общий поток : 1978 Кбит/сек
Программа кодирования : VirtualDubMod 1.5.10.3 http://www.virtualdub-fr.org || (build 2550/release)
Библиотека кодирования : VirtualDub2 build 41768/release

Видео
Идентификатор : 0
Формат : MPEG-4 Visual
Профиль формата : Advanced Simple@L5
Настройки формата : BVOP2
Параметр BVOP формата : 2
Параметр QPel формата : Нет
Параметр GMC формата : Без точки перехода
Параметр матрицы формата : Default (H.263)
Идентификатор кодека : XVID
Идентификатор кодека/Подсказка : XviD
Продолжительность : 52 м. 42 с.
Битрейт : 1776 Кбит/сек
Ширина : 720 пикселей
Высота : 400 пикселей
Соотношение сторон : 16:9
Частота кадров : 25,000 кадров/сек
Цветовое пространство : YUV
Субдискретизация насыщенности : 4:2:0
Битовая глубина : 8 бит
Тип развёртки : Прогрессивная
Метод сжатия : С потерями
Бит/(Пиксели*Кадры) : 0.247
Размер потока : 670 Мбайт (90%)
Библиотека кодирования : XviD 67

Аудио
Идентификатор : 1
Формат : AC-3
Формат/Информация : Audio Coding 3
Идентификатор кодека : 2000
Продолжительность : 52 м. 42 с.
Вид битрейта : Постоянный
Битрейт : 192 Кбит/сек
Каналы : 2 канала
Расположение каналов : Front: L R
Частота : 48,0 КГц
Частота кадров : 31,250 кадров/сек (1536 SPF)
Битовая глубина : 16 бит
Метод сжатия : С потерями
Размер потока : 72,4 Мбайт (10%)
Выравнивание : Соединение по промежуткам
Продолжительность промежутка : 40 мс. (1,00 видеокадр)
Время предзагрузки промежутка : 512 мс.
ServiceKind/String : Complete Main
  • Торрент
Автор: alex11 Хэш: ---
Добавлен: 10 май 2018, 18:09 Приватный: Нет (DHT включён)
Статус: Проверен
Размер: 4.37 ГБ (4 690 546 288 байт)
Изменил:
---
Скачали: 6 (Раздающих: 0%)
Причина:
---
Здоровье: ???%
Сидеров: 0 Личеров: 1
Скорость раздачи: 0 байт/сек Скорость скачивания: 0 байт/сек
Последний сидер: 1 год 11 месяцев 17 дней 1 час 3 минуты 53 секунды назад Последний личер: 23 дня 16 часов 58 минут 7 секунд назад
Для скачивания торрента необходимо зарегистрироваться или войти на трекер.

Вернуться в Отечественные сериалы


Ресурс не предоставляет электронные версии произведений, а занимается лишь коллекционированием и каталогизацией ссылок, присылаемых и публикуемых на форуме нашими читателями. Если вы являетесь правообладателем какого-либо представленного материала и не желаете чтобы ссылка на него находилась в нашем каталоге, свяжитесь с нами и мы незамедлительно удалим её. Файлы для обмена на трекере предоставлены пользователями сайта, и администрация не несёт ответственности за их содержание. Просьба не заливать файлы, защищенные авторскими правами, а также файлы нелегального содержания!
cron