Соседи (2018) WEB-DL [H.264/1080p-LQ] (серии 1-4 из 4)

Обожаете отечественные сериалы смотреть ? Тогда вам в этот раздел.

Модераторы: Модераторы, Модераторы фильмов

alex11 Аватара пользователя
Модератор
Модератор

Раздал: 12.98 ТБ
Скачал: 50.43 ГБ
Ратио: 263.639
Сообщения: 1287

Зарегистрирован: 10 апр 2017, 07:25
В кошельке: 565.00
Банк: 79,252.12
Награды: 10
Путь к журналисту (1) Журналист (1) Старший журналист (1) За заслуги перед форумом (1)
Богат как фараон (1) Я сама щедрость! (1) В обмен на рекламный банер (1) Раздал 1 Tb (1)
Раздал 5 Tb (1) С Днем Рождения! (1)
Заслуженная репутация: 17
НовичокНовичокНовичокНовичок
  • Постеры
Производство: Россия
Жанр: комедия

Режиссер: Владимир Виноградов
Актеры: Евгений Сидихин, Елена Валюшкина, Владимир Тимофеев, Юлия Ауг, Александр Семчев, Жанна Эппле, Константин Чепурин, Евгений Серов, Михаил Парыгин, Константин Белошапка и др.

Описание:
Супружеская чета Кораблевых, вышедший в отставку пилот и его жена-учительница музыки, переезжают из Москвы в деревню Колотилово. Увезя мужа от соблазнов большого города, Кораблева надеется спасти их брак. Но жизнь в деревне им медом не покажется. Конфликт с соседями, деревенским трактористом Ширшиковым и его женой Татьяной, начнется с мелочей, а закончится полномасштабной войной, в которую втянется вся деревня.


Возраст: 12+ (зрителям, достигшим 12 лет)
Дата российской премьеры: 28 апреля 2018

Релиз от: Алехаndr

Продолжительность: 03:26:21
Качество видео: WEB-DL

Видео: AVC/H.264, 1920x1080 (16:9), ~3115 Kbps
Аудио: AC3, 2 ch, 192 Kbps


Общее
Уникальный идентификатор : 110386922432995195818902212603697904621 (0x530BBF78E18084A380F5D7596FB33BED)
Полное имя : D:\Соседи (2018).by.Алехаndr.mkv
Формат : Matroska
Версия формата : Version 4 / Version 2
Размер файла : 4,77 Гбайт
Продолжительность : 3 ч. 26 м.
Общий поток : 3308 Кбит/сек
Дата кодирования : UTC 2018-04-28 18:46:50
Программа кодирования : mkvmerge v22.0.0 ('At The End Of The World') 64-bit
Библиотека кодирования : libebml v1.3.5 + libmatroska v1.4.8 / Lavf57.71.100

Видео
Идентификатор : 1
Формат : AVC
Формат/Информация : Advanced Video Codec
Профиль формата : High@L4
Настройки формата : CABAC / 2 Ref Frames
Параметр CABAC формата : Да
Параметр RefFrames формата : 2 кадра
Идентификатор кодека : V_MPEG4/ISO/AVC
Продолжительность : 3 ч. 26 м.
Битрейт : 3114 Кбит/сек
Ширина : 1920 пикселей
Высота : 1080 пикселей
Соотношение сторон : 16:9
Режим частоты кадров : Постоянный
Частота кадров : 25,000 кадров/сек
Цветовое пространство : YUV
Субдискретизация насыщенности : 4:2:0
Битовая глубина : 8 бит
Тип развёртки : Прогрессивная
Бит/(Пиксели*Кадры) : 0.060
Размер потока : 4,49 Гбайт (94%)
Default : Да
Forced : Нет
Цветовой диапазон : Limited
Основные цвета : BT.709
Характеристики трансфера : BT.709
Коэффициенты матрицы : BT.709

Аудио
Идентификатор : 2
Формат : AC-3
Формат/Информация : Audio Coding 3
Идентификатор кодека : A_AC3
Продолжительность : 3 ч. 26 м.
Вид битрейта : Постоянный
Битрейт : 192 Кбит/сек
Каналы : 2 канала
Расположение каналов : Front: L R
Частота : 44,1 КГц
Частота кадров : 28,711 кадров/сек (1536 SPF)
Битовая глубина : 16 бит
Метод сжатия : С потерями
Размер потока : 283 Мбайт (6%)
Язык : Russian
ServiceKind/String : Complete Main
Default : Да
Forced : Нет
  • Торрент
Автор: alex11 Хэш: ---
Добавлен: 29 апр 2018, 18:47 Приватный: Нет (DHT включён)
Статус: Проверен
Размер: 4.77 ГБ (5 120 116 856 байт)
Изменил:
---
Скачали: 2 (Раздающих: 0%)
Причина:
---
Здоровье: 100%
Сидеров: 1 Личеров: 1
Скорость раздачи: 0 байт/сек Скорость скачивания: 0 байт/сек
Последний сидер: 23 дня 17 часов 18 минут 2 секунды назад Последний личер: 23 дня 17 часов 18 минут 2 секунды назад
Для скачивания торрента необходимо зарегистрироваться или войти на трекер.

Вернуться в Отечественные сериалы


Ресурс не предоставляет электронные версии произведений, а занимается лишь коллекционированием и каталогизацией ссылок, присылаемых и публикуемых на форуме нашими читателями. Если вы являетесь правообладателем какого-либо представленного материала и не желаете чтобы ссылка на него находилась в нашем каталоге, свяжитесь с нами и мы незамедлительно удалим её. Файлы для обмена на трекере предоставлены пользователями сайта, и администрация не несёт ответственности за их содержание. Просьба не заливать файлы, защищенные авторскими правами, а также файлы нелегального содержания!
cron