Крепость Бадабер (2018) SATRip (серии 1-4 из 4)

Обожаете отечественные сериалы смотреть ? Тогда вам в этот раздел.

Модераторы: Модераторы, Модераторы фильмов

alex11 Аватара пользователя
Модератор
Модератор

Раздал: 12.98 ТБ
Скачал: 50.43 ГБ
Ратио: 263.639
Сообщения: 1287

Зарегистрирован: 10 апр 2017, 07:25
В кошельке: 565.00
Банк: 79,252.12
Награды: 10
Путь к журналисту (1) Журналист (1) Старший журналист (1) За заслуги перед форумом (1)
Богат как фараон (1) Я сама щедрость! (1) В обмен на рекламный банер (1) Раздал 1 Tb (1)
Раздал 5 Tb (1) С Днем Рождения! (1)
Заслуженная репутация: 17
НовичокНовичокНовичокНовичок
  • Постеры
Производство: Россия
Жанр: драма, военный

Режиссер: Кирилл Белевич
Актеры: Сергей Марин, Светлана Иванова, Ирина Розанова, Сергей Колесников, Станислав Курач, Александр Фисенко, Виталий Кищенко, Марчин Стец, Илья Маланин, Рамиль Сабитов и др.

Описание:
Весна 1985-ого. По заданию ГРУ разведчик Юрий Никитин проникает в пакистанскую крепость Бадабер. Никитин должен собрать доказательства существования здесь центра подготовки моджахедов под руководством ЦРУ. Выполнив опасное задание, Никитин видит на территории крепости группу русских военнопленных, среди которых узнает своего друга Михаила, сына своего командира генерала Колесова, несколько лет считавшегося пропавшим без вести. Никитин решает остаться и спасти обреченных на смерть ребят….


Возраст: 16+ (зрителям, достигшим 16 лет)
Дата российской премьеры: 12 февраля 2018

Продолжительность: ~00:48:00 серия
Качество видео: SATRip

Видео: Xvid, 720x400 (16:9), ~1650 Kbps
Аудио: MP3, 2 ch, 192 Kbps

Фильм снят на основе реальных событий Афганской войны.
Массовые сцены боев снимали в песчаном карьере в Краснодарском крае. Туда привезли советскую военную технику 80-х годов.
События в Бадабере уже были описаны в кино. В 1993 году Тимур Бекмамбетов и Геннадий Каюмов сняли драму «Пешаварский вальс».
Почти все участники восстания в Бадабере погибли при бомбардировке крепости. Известен лишь один участник событий, сумевший выжить и вернуться в СССР.

Общее
Полное имя : D:\Крепость Бадабер (2018)\Серия 1.avi
Формат : AVI
Формат/Информация : Audio Video Interleave
Размер файла : 646 Мбайт
Продолжительность : 48 м. 47 с.
Общий поток : 1852 Кбит/сек
Программа кодирования : VirtualDubMod 1.5.10.3 | www.virtualdub-fr.org || (build 2550/release)
Библиотека кодирования : VirtualDubMod build 2550/release

Видео
Идентификатор : 0
Формат : MPEG-4 Visual
Профиль формата : Advanced Simple@L5
Настройки формата : BVOP2
Параметр BVOP формата : 2
Параметр QPel формата : Нет
Параметр GMC формата : Без точки перехода
Параметр матрицы формата : Default (MPEG)
Идентификатор кодека : XVID
Идентификатор кодека/Подсказка : XviD
Продолжительность : 48 м. 47 с.
Битрейт : 1650 Кбит/сек
Ширина : 720 пикселей
Высота : 400 пикселей
Соотношение сторон : 16:9
Частота кадров : 25,000 кадров/сек
Цветовое пространство : YUV
Субдискретизация насыщенности : 4:2:0
Битовая глубина : 8 бит
Тип развёртки : Прогрессивная
Метод сжатия : С потерями
Бит/(Пиксели*Кадры) : 0.229
Размер потока : 576 Мбайт (89%)
Библиотека кодирования : XviD 1.2.1 (UTC 2008-12-04)

Аудио
Идентификатор : 1
Формат : MPEG Audio
Версия формата : Version 1
Профиль формата : Layer 3
Настройки формата : Joint stereo / MS Stereo
Идентификатор кодека : 55
Идентификатор кодека/Подсказка : MP3
Продолжительность : 48 м. 47 с.
Вид битрейта : Постоянный
Битрейт : 192 Кбит/сек
Каналы : 2 канала
Частота : 48,0 КГц
Частота кадров : 41,667 кадра/сек (1152 SPF)
Метод сжатия : С потерями
Размер потока : 67,0 Мбайт (10%)
Выравнивание : Соединение по промежуткам
Продолжительность промежутка : 40 мс. (1,00 видеокадр)
Время предзагрузки промежутка : 504 мс.
Библиотека кодирования : LAME3.99r
Настройки программы : -m j -V 4 -q 2 -lowpass 18.6 -b 192
  • Торрент
Автор: alex11 Хэш: ---
Добавлен: 12 мар 2018, 02:33 Приватный: Нет (DHT включён)
Статус: Проверен
Размер: 2.55 ГБ (2 735 470 592 байт)
Изменил:
---
Скачали: 3 (Раздающих: 0%)
Причина:
---
Здоровье: ???%
Сидеров: 0 Личеров: 2
Скорость раздачи: 0 байт/сек Скорость скачивания: 0 байт/сек
Последний сидер: 2 года 2 месяца 19 дней 12 часов 45 минут 44 секунды назад Последний личер: 23 дня 16 часов 42 минуты 48 секунд назад
Для скачивания торрента необходимо зарегистрироваться или войти на трекер.

Вернуться в Отечественные сериалы


cron
Ресурс не предоставляет электронные версии произведений, а занимается лишь коллекционированием и каталогизацией ссылок, присылаемых и публикуемых на форуме нашими читателями. Если вы являетесь правообладателем какого-либо представленного материала и не желаете чтобы ссылка на него находилась в нашем каталоге, свяжитесь с нами и мы незамедлительно удалим её. Файлы для обмена на трекере предоставлены пользователями сайта, и администрация не несёт ответственности за их содержание. Просьба не заливать файлы, защищенные авторскими правами, а также файлы нелегального содержания!
cron