Дорога из жёлтого кирпича (2017) WEB-DL [H.264/1080p-LQ] (серии 1-4 из 4)

Обожаете отечественные сериалы смотреть ? Тогда вам в этот раздел.

Модераторы: Модераторы, Модераторы фильмов

alex11 Аватара пользователя
Модератор
Модератор

Раздал: 12.98 ТБ
Скачал: 50.43 ГБ
Ратио: 263.639
Сообщения: 1287

Зарегистрирован: 10 апр 2017, 07:25
В кошельке: 565.00
Банк: 79,252.12
Награды: 10
Путь к журналисту (1) Журналист (1) Старший журналист (1) За заслуги перед форумом (1)
Богат как фараон (1) Я сама щедрость! (1) В обмен на рекламный банер (1) Раздал 1 Tb (1)
Раздал 5 Tb (1) С Днем Рождения! (1)
Заслуженная репутация: 17
НовичокНовичокНовичокНовичок
  • Постеры
Производство: Россия
Жанр: мелодрама

Режиссер: Екатерина Шагалова
Актеры: Дмитрий Марьянов, Мария Шалаева, Даниил Спиваковский, Екатерина Волкова, Евгений Сидихин, Екатерина Вуличенко, Андрей Барило, Иван Щенин, Александр Булатов, Григорий Середа и др.

Описание:
Девушка Варя случайно встречает свою детскую любовь — Ивана Петровича Соболя. От своей школьной подруги она узнает, что тот потерял жену и ребенка в автомобильной аварии. Варя решает рассказать Ивану историю о том, как 10 лет назад в клинике, где она работала, перепутали ЭКО материалы, и о том, что у него в другой семье растет его биологический сын…


Возраст: 12+ (зрителям, достигшим 12 лет)
Дата российской премьеры: 10 марта 2018


Релиз от: Алехаndr

Продолжительность: ~00:45:00 серия
Качество видео: WEB-DL

Видео: AVC/H.264, 1920x1080 (16:9), ~3545 Kbps
Аудио: AC3, 2 ch, 192 Kbps


Общее
Уникальный идентификатор : 167589498687852927068819372931644944810 (0x7E14903A3F39031087CFFC01993471AA)
Полное имя : G:\Дорога из жёлтого кирпича (2017).by.Алехаndr\Серия 1.by.Алехаndr.mkv
Формат : Matroska
Версия формата : Version 4 / Version 2
Размер файла : 1,20 Гбайт
Продолжительность : 44 м. 56 с.
Общий поток : 3812 Кбит/сек
Программа кодирования : Lavf57.71.100
Библиотека кодирования : Lavf57.71.100
ErrorDetectionType : Per level 1

Видео
Идентификатор : 1
Формат : AVC
Формат/Информация : Advanced Video Codec
Профиль формата : High@L4
Настройки формата : CABAC / 2 Ref Frames
Параметр CABAC формата : Да
Параметр RefFrames формата : 2 кадра
Идентификатор кодека : V_MPEG4/ISO/AVC
Продолжительность : 44 м. 56 с.
Битрейт : 3544 Кбит/сек
Ширина : 1920 пикселей
Высота : 1080 пикселей
Соотношение сторон : 16:9
Режим частоты кадров : Постоянный
Частота кадров : 24,000 кадра/сек
Цветовое пространство : YUV
Субдискретизация насыщенности : 4:2:0
Битовая глубина : 8 бит
Тип развёртки : Прогрессивная
Бит/(Пиксели*Кадры) : 0.071
Размер потока : 1,11 Гбайт (93%)
Default : Да
Forced : Нет
Цветовой диапазон : Limited
Основные цвета : BT.601 PAL
Характеристики трансфера : BT.709
Коэффициенты матрицы : BT.470 System B, BT.470 System G

Аудио
Идентификатор : 2
Формат : AC-3
Формат/Информация : Audio Coding 3
Идентификатор кодека : A_AC3
Продолжительность : 44 м. 56 с.
Вид битрейта : Постоянный
Битрейт : 192 Кбит/сек
Каналы : 2 канала
Расположение каналов : Front: L R
Частота : 44,1 КГц
Частота кадров : 28,711 кадров/сек (1536 SPF)
Битовая глубина : 16 бит
Метод сжатия : С потерями
Размер потока : 61,7 Мбайт (5%)
Язык : Russian
ServiceKind/String : Complete Main
Default : Да
Forced : Нет
  • Торрент
Автор: alex11 Хэш: ---
Добавлен: 11 мар 2018, 06:57 Приватный: Нет (DHT включён)
Статус: Проверен
Размер: 4.58 ГБ (4 916 909 925 байт)
Изменил:
---
Скачали: 0 (Раздающих: 0%)
Причина:
---
Здоровье: ???%
Сидеров: 0 Личеров: 1
Скорость раздачи: 0 байт/сек Скорость скачивания: 0 байт/сек
Последний сидер: 2 года 3 месяца 25 дней 2 часа 46 минут 27 секунд назад Последний личер: 23 дня 16 часов 59 минут 48 секунд назад
Для скачивания торрента необходимо зарегистрироваться или войти на трекер.

Вернуться в Отечественные сериалы


Ресурс не предоставляет электронные версии произведений, а занимается лишь коллекционированием и каталогизацией ссылок, присылаемых и публикуемых на форуме нашими читателями. Если вы являетесь правообладателем какого-либо представленного материала и не желаете чтобы ссылка на него находилась в нашем каталоге, свяжитесь с нами и мы незамедлительно удалим её. Файлы для обмена на трекере предоставлены пользователями сайта, и администрация не несёт ответственности за их содержание. Просьба не заливать файлы, защищенные авторскими правами, а также файлы нелегального содержания!
cron