Марш-бросок [боевик, драма, 2003] DVDRip-AVC

Модераторы: Модераторы, Модераторы фильмов

Sonik
Модератор
Модератор

Раздал: 3.75 ТБ
Скачал: 1.93 ТБ
Ратио: 1.946
Сообщения: 680

Зарегистрирован: 13 сен 2017, 00:19
В кошельке: 9,723.00
Награды: 5
Путь к журналисту (1) Журналист (1) Старший журналист (1) Богат как фараон (1)
С Днем Рождения! (1)
Заслуженная репутация: 4
  • Постеры
Жанр: боевик, драма
Год выпуска: 2003
Продолжительность: 01:50:16
Режиссёр: Николай Стамбула
В ролях: Владимир Волга, Ольга Чурсина, Федор Смирнов, Александр Балуев, Сергей Гармаш, Сергей Болотаев, Евгений Косырев, Марат Гацалов, Александр Прудников, Дмитрий Дьяконов...

Описание: Молодой человек, воспитанник детского дома, стремится попасть на чеченскую войну, искренне веря, что именно там его место, и в этих тяжелых условиях он сможет проявить себя. Пройдя подготовку, Александр попадает в элитные войска спецназа и отправляется навстречу суровым испытаниям, которые ждут его на войне...



Качество: DVDRip-AVC
Видео: MPEG-4 AVC, 678x564@964x564, 25 fps, 3046 Кбит/с
Аудио: AC3, 6 ch, 448 Кбит/с
Язык: Русский
Субтитры: Русские

x264 [info]: frame I:1053 Avg QP:18.37 size: 80015
x264 [info]: frame P:35467 Avg QP:19.91 size: 36143
x264 [info]: frame B:128885 Avg QP:22.08 size: 9392
x264 [info]: consecutive B-frames: 1.5% 2.9% 7.8% 19.0% 17.1% 43.7% 4.9% 1.4% 1.1% 0.4%
Общее
Уникальный идентификатор : 181463337918629748108671245180366222389 (0x888491503D193586A0473CE9439BF435)
Полное имя : D:Марш-бросок_2003-DVDRip-AVC_KORSAR.mkv
Формат : Matroska
Версия формата : Version 2
Размер файла : 2,75 Гбайт
Продолжительность : 1 ч. 50 м.
Общий поток : 3565 Кбит/сек
Название фильма : Марш-бросок_2003-DVDRip-AVC_KORSAR
Дата кодирования : UTC 2019-03-24 02:30:46
Программа кодирования : mkvmerge v5.8.0 ('No Sleep / Pillow') built on Sep 2 2012 15:37:04
Библиотека кодирования : libebml v1.2.3 + libmatroska v1.3.0

Видео
Идентификатор : 1
Формат : AVC
Формат/Информация : Advanced Video Codec
Профиль формата : High@L4.1
Параметр CABAC формата : Да
Параметр ReFrames формата : 14 кадров
Идентификатор кодека : V_MPEG4/ISO/AVC
Продолжительность : 1 ч. 50 м.
Битрейт : 3046 Кбит/сек
Ширина : 678 пикселей
Высота : 564 пикселя
Соотношение сторон : 1,709
Соотношение сторон в оригинале : 1,710
Режим частоты кадров : Постоянный
Частота кадров : 25,000 кадров/сек
Цветовое пространство : YUV
Субдискретизация насыщенности : 4:2:0
Битовая глубина : 8 бит
Тип развёртки : Прогрессивная
Бит/(Пиксели*Кадры) : 0.319
Размер потока : 2,35 Гбайт (85%)
Библиотека кодирования : x264 core 152 r2851kMod ba24899
Настройки программы : cabac=1 / ref=14 / deblock=1:-2:-2 / analyse=0x3:0x133 / me=umh / subme=10 / psy=1 / fade_compensate=0.00 / psy_rd=1.05:0.10 / mixed_ref=1 / me_range=40 / chroma_me=1 / trellis=2 / 8x8dct=1 / cqm=0 / deadzone=21,11 / fast_pskip=1 / chroma_qp_offset=-3 / threads=12 / lookahead_threads=2 / sliced_threads=0 / nr=0 / decimate=1 / interlaced=0 / bluray_compat=0 / constrained_intra=0 / bframes=9 / b_pyramid=2 / b_adapt=2 / b_bias=0 / direct=1 / weightb=1 / open_gop=0 / weightp=2 / keyint=250 / keyint_min=25 / scenecut=40 / intra_refresh=0 / rc=crf / mbtree=0 / crf=17.6000 / qcomp=0.63 / qpmin=0 / qpmax=30 / qpstep=4 / ip_ratio=1.40 / pb_ratio=1.30 / aq=1:0.90
Язык : English
Default : Да
Forced : Нет
Основные цвета : BT.601 PAL
Характеристики трансфера : BT.470 System B, BT.470 System G
Коэффициенты матрицы : BT.601

Аудио
Идентификатор : 2
Формат : AC-3
Формат/Информация : Audio Coding 3
Расширение режима : CM (complete main)
Параметр Endianness формата : Big
Идентификатор кодека : A_AC3
Продолжительность : 1 ч. 50 м.
Вид битрейта : Постоянный
Битрейт : 448 Кбит/сек
Каналы : 6 каналов
Расположение каналов : Front: L C R, Side: L R, LFE
Частота : 48,0 КГц
Битовая глубина : 16 бит
Метод сжатия : С потерями
Размер потока : 353 Мбайт (13%)
Язык : Russian
Default : Да
Forced : Нет

Текст
Идентификатор : 3
Формат : UTF-8
Идентификатор кодека : S_TEXT/UTF8
Идентификатор кодека/Информация : UTF-8 Plain Text
Язык : Russian
Default : Нет
Forced : Нет

Меню
00:00:00.000 : en:Chapter 1
00:09:32.400 : en:Chapter 2
00:14:22.200 : en:Chapter 3
00:27:24.000 : en:Chapter 4
00:34:36.000 : en:Chapter 5
00:45:34.800 : en:Chapter 6
00:55:00.600 : en:Chapter 7
01:00:37.200 : en:Chapter 8
01:11:22.800 : en:Chapter 9
01:16:52.800 : en:Chapter 10
01:25:21.600 : en:Chapter 11
01:34:12.600 : en:Chapter 12
  • Торрент
Автор: Sonik Хэш: ---
Добавлен: 11 янв 2021, 21:24 Приватный: Нет (DHT включён)
Статус: Проверен
Размер: 2.75 ГБ (2 948 664 133 байт)
Изменил: Sonik (11 янв 2021, 21:24)
Скачали: 1 (Раздающих: 0%)
Причина:
---
Здоровье: 0%
Сидеров: 0 Личеров: 0
Скорость раздачи: 0 байт/сек Скорость скачивания: 0 байт/сек
Последний сидер: 4 дня 12 часов 14 минут 40 секунд назад Последний личер: 4 дня 13 часов 14 минут 29 секунд назад
Для скачивания торрента необходимо зарегистрироваться или войти на трекер.

Вернуться в Российское кино | Хорошее качество [HDTV и HD Rips, Web-DL, Sat-Rip, HDDVD-Rip]


cron
Ресурс не предоставляет электронные версии произведений, а занимается лишь коллекционированием и каталогизацией ссылок, присылаемых и публикуемых на форуме нашими читателями. Если вы являетесь правообладателем какого-либо представленного материала и не желаете чтобы ссылка на него находилась в нашем каталоге, свяжитесь с нами и мы незамедлительно удалим её. Файлы для обмена на трекере предоставлены пользователями сайта, и администрация не несёт ответственности за их содержание. Просьба не заливать файлы, защищенные авторскими правами, а также файлы нелегального содержания!
cron