Приди ко мне / Другой агнец / The Other Lamb [драма, ужасы, 2019] WEB-DLRip-AVC, Avo

Модераторы: Модераторы, Модераторы фильмов

Sonik
Модератор
Модератор

Раздал: 2.53 ТБ
Скачал: 1.79 ТБ
Ратио: 1.410
Сообщения: 523

Зарегистрирован: 13 сен 2017, 00:19
В кошельке: 7,376.00
Награды: 4
Путь к журналисту (1) Журналист (1) Богат как фараон (1) С Днем Рождения! (1)
Заслуженная репутация: 4
  • Постеры
Название: Приди ко мне
Оригинальное название: The Other Lamb
Год выхода: 2019
Жанр: драма, ужасы
Режиссер: Малгожата Шумовска
В ролях: Рэффи Кэссиди, Михиль Хаусман, Денис Гоф, Ив Коннолли, Келли Кэмпбелл, Изабель Коннолли, Эльве Коули, Ирен Келлехер, Шарлотта Мур, Джейн Херберт

Описание: Молодая девушка с самого рождения живет в лесу. Ее мир состоит только из женщин и единственного мужчины — загадочного и деспотичного Пастыря. Он стал для женщин отцом, учителем, любовником и единственным другом. Со временем девушка начинает подвергать сомнению окружающую ее действительность и решает раскрыть шокирующую правду.



Страна: Ирландия, Бельгия, США
Продолжительность: 01:36:49
Перевод: Любительский (одноголосый закадровый) datynet
Формат: MKV
Качество: WEB-DLRip-AVC
Видео: MPEG-4 AVC, 720x404 (16:9), 23.976 fps, 1827 Kbps, 0.262 bit/pixel
Аудио : 48 kHz, AC3, 2.0, 192 Kbps | VO | RUS |
Субтитры: Русские (Full (Наталья Раевская))


General
Unique ID : 182629683490702852638130410500385726553 (0x8965329704ED26B3A606E70B2430E059)
Complete name : F:The.Other.Lamb.2019.AVC.ExKinoRay.mkv
Format : Matroska
Format version : Version 2
File size : 1.36 GiB
Duration : 1 h 36 min
Overall bit rate : 2 012 kb/s
Movie name : The Other Lamb 2019 from ExKinoRay
Encoded date : UTC 2020-04-29 00:57:18
Writing application : mkvmerge v5.6.0 ('Kenya Kane') built on May 27 2012 16:44:04
Writing library : libebml v1.2.3 + libmatroska v1.3.0
Attachments : poster.jpg

Video
ID : 1
Format : AVC
Format/Info : Advanced Video Codec
Format profile : High@L4.1
Format settings, CABAC : Yes
Format settings, ReFrames : 11 frames
Codec ID : V_MPEG4/ISO/AVC
Duration : 1 h 36 min
Bit rate : 1 827 kb/s
Width : 720 pixels
Height : 404 pixels
Display aspect ratio : 16:9
Frame rate mode : Constant
Frame rate : 23.976 (24000/1001) FPS
Original frame rate : 23.976 (23976/1000) FPS
Color space : YUV
Chroma subsampling : 4:2:0
Bit depth : 8 bits
Scan type : Progressive
Bits/(Pixel*Frame) : 0.262
Stream size : 1.20 GiB (88%)
Title : Enigma
Writing library : x264 core 152 r2851 ba24899
Encoding settings : cabac=1 / ref=11 / deblock=1:-2:-2 / analyse=0x3:0x113 / me=umh / subme=10 / psy=1 / psy_rd=1.05:0.10 / mixed_ref=1 / me_range=32 / chroma_me=1 / trellis=2 / 8x8dct=1 / cqm=0 / deadzone=21,11 / fast_pskip=0 / chroma_qp_offset=-3 / threads=12 / lookahead_threads=3 / sliced_threads=0 / nr=0 / decimate=0 / interlaced=0 / bluray_compat=0 / constrained_intra=0 / bframes=10 / b_pyramid=2 / b_adapt=2 / b_bias=0 / direct=3 / weightb=1 / open_gop=0 / weightp=2 / keyint=240 / keyint_min=23 / scenecut=40 / intra_refresh=0 / rc=2pass / mbtree=0 / bitrate=1827 / ratetol=1.0 / qcomp=0.60 / qpmin=0 / qpmax=51 / qpstep=4 / cplxblur=20.0 / qblur=0.5 / ip_ratio=1.40 / pb_ratio=1.30 / aq=1:1.00
Default : Yes
Forced : No

Audio
ID : 2
Format : AC-3
Format/Info : Audio Coding 3
Mode extension : CM (complete main)
Format settings, Endianness : Big
Codec ID : A_AC3
Duration : 1 h 36 min
Bit rate mode : Constant
Bit rate : 192 kb/s
Channel(s) : 2 channels
Channel positions : Front: L R
Sampling rate : 48.0 kHz
Frame rate : 31.250 FPS (1536 spf)
Compression mode : Lossy
Stream size : 133 MiB (10%)
Title : VO (datynet)
Language : Russian
Default : Yes
Forced : No

Text
ID : 3
Format : UTF-8
Codec ID : S_TEXT/UTF8
Codec ID/Info : UTF-8 Plain Text
Title : Full (Enigma)
Language : Russian
Default : No
Forced : No
  • Торрент
Автор: Sonik Хэш: ---
Добавлен: 30 апр 2020, 02:22 Приватный: Нет (DHT включён)
Статус: Проверен
Размер: 1.36 ГБ (1 461 162 923 байт)
Изменил: Sonik (30 апр 2020, 02:24)
Скачали: 1 (Раздающих: 0%)
Причина:
---
Здоровье: 0%
Сидеров: 0 Личеров: 0
Скорость раздачи: 0 байт/сек Скорость скачивания: 0 байт/сек
Последний сидер: 1 месяц 3 дня 3 часа 55 минут 53 секунды назад Последний личер: 1 месяц 3 дня 4 часа 34 минуты 31 секунду назад
Для скачивания торрента необходимо зарегистрироваться или войти на трекер.

Вернуться в Зарубежное кино | Хорошее качество [HDTV и HD Rips, Web-DL, Sat-Rip, HDDVD-Rip]


Ресурс не предоставляет электронные версии произведений, а занимается лишь коллекционированием и каталогизацией ссылок, присылаемых и публикуемых на форуме нашими читателями. Если вы являетесь правообладателем какого-либо представленного материала и не желаете чтобы ссылка на него находилась в нашем каталоге, свяжитесь с нами и мы незамедлительно удалим её. Файлы для обмена на трекере предоставлены пользователями сайта, и администрация не несёт ответственности за их содержание. Просьба не заливать файлы, защищенные авторскими правами, а также файлы нелегального содержания!
cron