Сияние / The Shining (1980) HDRip-AVC | Полная Версия

Модераторы: Модераторы, Модераторы фильмов

Sonik Аватара пользователя
Модератор
Модератор

Раздал: 3.13 ТБ
Скачал: 1.89 ТБ
Ратио: 1.655
Сообщения: 600

Зарегистрирован: 13 сен 2017, 00:19
В кошельке: 8,775.00
Награды: 5
Путь к журналисту (1) Журналист (1) Старший журналист (1) Богат как фараон (1)
С Днем Рождения! (1)
Заслуженная репутация: 4
  • Постеры
Информация о фильме
Название: Сияние
Оригинальное название: The Shining
Год выхода: 1980
Жанр: Триллер, ужасы
Режиссер: Стэнли Кубрик
В ролях: Джек Николсон, Шелли Дюволл, Дэнни Ллойд, Скэтман Крозерс, Энн Джексон, Тони Бертон, Барри Нелсон, Филип Стоун, Джо Теркел

О фильме: Джек Торренс, приехал в элегантный уединенный отель, чтобы поработать смотрителем во время мертвого сезона вместе со своей женой и сыном. Торренс здесь раньше никогда не бывал. Или это не совсем так? Ответ лежит во мраке, сотканном из преступного кошмара.



Страна: США, Warner Bros.
Продолжительность: 02:23:46
Перевод: Профессиональный (многоголосый закадровый)
Субтитры: Русские, английские

Файл
Формат: Matroska
Качество: HDRip-AVC
Видео: 768x432 at 23.976 fps, x264, ~1349 kbps, 0.170 bpp
Аудио: AAC, 2 ch, ~96 kbps - |MVO Киномания|
Формат субтитров: softsub (SRT)
***Релиз от: -=DoMiNo=-

x264 [info]: frame I:1166 Avg QP:16.31 size: 62139
x264 [info]: frame P:42100 Avg QP:19.41 size: 15815
x264 [info]: frame B:163553 Avg QP:20.05 size: 4378
x264 [info]: consecutive B-frames: 1.4% 2.4% 4.1% 22.8% 10.8% 40.9% 4.7% 11.3% 0.7% 0.5% 0.2% 0.1%

General
Format : Matroska
Format version : Version 4
File size : 1.45 GiB
Duration : 2 h 23 min
Overall bit rate : 1 446 kb/s
Movie name : Сияние.(1980).HDRip-AVC.Full.[-=DoMiNo=-]
Encoded date : UTC 2020-01-29 13:46:40
Writing application : mkvmerge v43.0.0 ('The Quartermaster') 64-bit
Writing library : libebml v1.3.10 + libmatroska v1.5.2
Attachments : poster.jpg / poster 2.jpg

Video
ID : 1
Format : AVC
Format/Info : Advanced Video Codec
Format profile : High@L4.1
Format settings : CABAC / 12 Ref Frames
Format settings, CABAC : Yes
Format settings, Reference : 12 frames
Codec ID : V_MPEG4/ISO/AVC
Duration : 2 h 23 min
Bit rate : 1 349 kb/s
Width : 768 pixels
Height : 432 pixels
Display aspect ratio : 16:9
Frame rate mode : Constant
Frame rate : 23.976 (24000/1001) FPS
Color space : YUV
Chroma subsampling : 4:2:0
Bit depth : 8 bits
Scan type : Progressive
Bits/(Pixel*Frame) : 0.170
Stream size : 1.35 GiB (93%)
Title : RIP_BY_-=DoMiNo=-
Writing library : x264 core 159 r2991 1771b55
Encoding settings : cabac=1 / ref=12 / deblock=1:-1:-1 / analyse=0x3:0x133 / me=umh / subme=11 / psy=1 / psy_rd=1.00:0.05 / mixed_ref=1 / me_range=32 / chroma_me=1 / trellis=2 / 8x8dct=1 / cqm=0 / deadzone=21,11 / fast_pskip=0 / chroma_qp_offset=-3 / threads=6 / lookahead_threads=1 / sliced_threads=0 / nr=0 / decimate=0 / interlaced=0 / bluray_compat=0 / constrained_intra=0 / bframes=11 / b_pyramid=2 / b_adapt=2 / b_bias=0 / direct=3 / weightb=1 / open_gop=0 / weightp=2 / keyint=240 / keyint_min=24 / scenecut=40 / intra_refresh=0 / rc_lookahead=40 / rc=2pass / mbtree=0 / bitrate=1349 / ratetol=1.0 / qcomp=0.65 / qpmin=0 / qpmax=69 / qpstep=4 / cplxblur=20.0 / qblur=0.5 / vbv_maxrate=50000 / vbv_bufsize=62500 / nal_hrd=none / filler=0 / ip_ratio=1.40 / pb_ratio=1.30 / aq=3:1.00
Language : English
Default : Yes
Forced : No

Audio
ID : 2
Format : AAC LC SBR
Format/Info : Advanced Audio Codec Low Complexity with Spectral Band Replication
Commercial name : HE-AAC
Format settings : Explicit
Codec ID : A_AAC-2
Duration : 2 h 23 min
Bit rate : 96.0 kb/s
Channel(s) : 2 channels
Channel layout : L R
Sampling rate : 48.0 kHz
Frame rate : 23.438 FPS (2048 SPF)
Compression mode : Lossy
Stream size : 97.4 MiB (7%)
Title : MVO_[Киномания]
Language : Russian
Default : Yes
Forced : No

Text #1
ID : 3
Format : UTF-8
Codec ID : S_TEXT/UTF8
Codec ID/Info : UTF-8 Plain Text
Duration : 2 h 19 min
Bit rate : 67 b/s
Count of elements : 1469
Stream size : 68.7 KiB (0%)
Title : Киномания
Language : Russian
Default : No
Forced : No

Text #2
ID : 4
Format : UTF-8
Codec ID : S_TEXT/UTF8
Codec ID/Info : UTF-8 Plain Text
Duration : 2 h 14 min
Bit rate : 40 b/s
Count of elements : 1301
Stream size : 39.7 KiB (0%)
Language : English
Default : No
Forced : No

Menu
00:00:00.000 : en:Drive to the Overlook
00:03:00.847 : en:The Interview
00:05:05.638 : en:Quite a Story
00:10:34.467 : en:Bloody Vision
00:12:07.893 : en:The Doctor's Questions
00:14:24.697 : en:Family History
00:17:38.390 : en:Closing Day
00:20:31.230 : en:The Tour
00:24:58.997 : en:Doc Gets The Message
00:28:52.063 : en:Talk of Shining - and Room 237
00:34:10.548 : en:A Month Later: Bouncing and Exploring
00:40:29.260 : en:Tuesday: Curiosity for Danny, Rules for Wendy
00:46:01.425 : en:Thursday: Snowbound
00:46:52.643 : en:Saturday: Slipping Out of Touch
00:49:17.788 : en:Come and Play
00:51:16.573 : en:Monday: "I Love You, Danny"
00:57:02.252 : en:Wednesday: Room 237 Beckons
00:58:37.180 : en:Nightmares and Neck Wounds
01:02:37.587 : en:The Gold Room
01:06:06.128 : en:Words of Wisdom
01:09:01.137 : en:Halloran Shines; Jack Rages
01:16:52.774 : en:Danny Shines; Jack Rages
01:22:19.100 : en:The Party
01:25:30.291 : en:Delbert Grady
01:31:41.496 : en:"Redrum! Danny's Not Here"
01:34:04.305 : en:Sabotage
01:35:49.076 : en:Halloran Flies In
01:39:30.965 : en:All Work and No Play
01:43:50.390 : en:What Should Be Done With Danny
01:49:26.893 : en:Jack In Storage; Wendy In A Frenzy
01:54:24.858 : en:Grady Intervenes; Halloran en Route
01:58:45.118 : en:"Redrum!"
02:01:09.929 : en:"Here's Johnny"
02:05:30.523 : en:On The Prowl
02:07:33.145 : en:Halloran Killed
02:10:23.982 : en:Into The Maze
02:12:10.422 : en:"Great Party, Isn't It?"
02:15:03.762 : en:Escape
02:18:57.495 : en:The Overlook Claims Jack
02:21:17.969 : en:End Credits
  • Торрент
Автор: Sonik Хэш: ---
Добавлен: 30 янв 2020, 01:49 Приватный: Нет (DHT включён)
Статус: Проверен
Размер: 1.45 ГБ (1 558 644 266 байт)
Изменил: Sonik (30 янв 2020, 01:49)
Скачали: 715 (Раздающих: 0%)
Причина:
---
Здоровье: 100%
Сидеров: 316 Личеров: 22
Скорость раздачи: 0 байт/сек Скорость скачивания: 0 байт/сек
Последний сидер: 13 дней 17 часов 15 минут 47 секунд назад Последний личер: 13 дней 17 часов 15 минут 47 секунд назад
Для скачивания торрента необходимо зарегистрироваться или войти на трекер.

Вернуться в Зарубежное кино | Хорошее качество [HDTV и HD Rips, Web-DL, Sat-Rip, HDDVD-Rip]


Ресурс не предоставляет электронные версии произведений, а занимается лишь коллекционированием и каталогизацией ссылок, присылаемых и публикуемых на форуме нашими читателями. Если вы являетесь правообладателем какого-либо представленного материала и не желаете чтобы ссылка на него находилась в нашем каталоге, свяжитесь с нами и мы незамедлительно удалим её. Файлы для обмена на трекере предоставлены пользователями сайта, и администрация не несёт ответственности за их содержание. Просьба не заливать файлы, защищенные авторскими правами, а также файлы нелегального содержания!
cron