Никита / Её звали Никита / La Femme Nikita / Nikita [Боевик, триллер, 1990] HDRip-AVC, Mvo

Модераторы: Модераторы, Модераторы фильмов

Sonik Аватара пользователя
Модератор
Модератор

Раздал: 2.14 ТБ
Скачал: 1.57 ТБ
Ратио: 1.365
Сообщения: 448

Зарегистрирован: 13 сен 2017, 00:19
В кошельке: 6,381.00
Награды: 4
Путь к журналисту (1) Журналист (1) Богат как фараон (1) С Днем Рождения! (1)
Заслуженная репутация: 4
  • Постеры
Информация о фильме
Название: Её звали Никита / Никита
Оригинальное название: La Femme Nikita / Nikita
Год выхода: 1990
Жанр: Боевик, триллер
Режиссер: Люк Бессон
В ролях: Анн Парийо, Жан-Юг Англад, Чеки Карио, Жанна Моро, Жан Рено, Марк Дюре, Патрик Фонтана, Жак Буде, Пьер-Ален Де Гарриге, Патрик Перес, Винсент Скименти, Ролан Бланш, Жак Диссе, Филипп Деэсден, Жан-Люк Карон, Филипп Леруа, Иска Кхан, Жерар Туратье, Эдит Перре, Мюррэй Гронуэлл, Петронилла Мосс, Эрик Прат, Миа Фрай, Оливье Эмон, Филип дю Жанеран, Кристиан Газио, Жером Шалу, Жан-Клод Болл-Редда, Жан Буиз, Морис Антони, Стефан Феи, Павел Слабы, Пьеррик Шарпантье, Фаусто Костантино, Мишель Амиел

О фильме: Приговоренную к пожизненному заключению преступницу по имени Никита ставят перед выбором: либо сидеть, либо пройти специальную подготовку и стать правительственным агентом-убийцей. Она соглашается пройти трехгодичный курс и превращается в совершенно новую личность. Но тут в дело вмешивается любовь, и героиня, лишь начав понимать, что такое настоящая жизнь сталкивается с суровой действительностью: задание есть задание…



Страна: Франция, Италия
Студия: Gaumont, Cecchi Gori Group Tiger Cinematografica, Les Films du Loup
Продолжительность: 01:57:13
Перевод: Профессиональный (многоголосый, закадровый) «Амальгама»

Файл
Формат: MKV
Качество: HDRip-AVC
Видео: MPEG-4 AVC, 752x320, - 812 Кбит/с
Аудио: AAC-HE, 2 ch, - 76 Кбит/с
Субтитры: Русские, английские

Общее
Уникальный идентификатор : 4834229269827156774018606376606750427 (0x3A309E7A53D673B39690B2C890BD6DB)
Полное имя : D:MOVIESNikita.1990.HDRip-AVC.ExKinoRay.mkv
Формат : Matroska
Версия формата : Version 4 / Version 2
Размер файла : 746 Мбайт
Продолжительность : 1 ч. 57 м.
Общий поток : 890 Кбит/сек
Дата кодирования : UTC 2020-01-05 14:32:15
Программа кодирования : mkvmerge v35.0.0 ('All The Love In The World') 64-bit
Библиотека кодирования : libebml v1.3.9 + libmatroska v1.5.2

Видео
Идентификатор : 1
Формат : AVC
Формат/Информация : Advanced Video Codec
Профиль формата : High@L4.1
Параметр CABAC формата : Да
Параметр RefFrames формата : 12 кадров
Идентификатор кодека : V_MPEG4/ISO/AVC
Продолжительность : 1 ч. 57 м.
Битрейт : 812 Кбит/сек
Ширина : 752 пикселя
Высота : 320 пикселей
Соотношение сторон : 2,35:1
Режим частоты кадров : Постоянный
Частота кадров : 23,976 (24000/1001) кадра/сек
Цветовое пространство : YUV
Субдискретизация насыщенности : 4:2:0
Битовая глубина : 8 бит
Тип развёртки : Прогрессивная
Бит/(Пиксели*Кадры) : 0.141
Размер потока : 681 Мбайт (91%)
Библиотека кодирования : x264 core 152 r2851kMod ba24899
Настройки программы : cabac=1 / ref=12 / deblock=1:-3:-2 / analyse=0x3:0x133 / me=umh / subme=10 / psy=1 / fade_compensate=0.00 / psy_rd=1.00:0.12 / mixed_ref=1 / me_range=32 / chroma_me=1 / trellis=2 / 8x8dct=1 / cqm=0 / deadzone=21,11 / fast_pskip=0 / chroma_qp_offset=-3 / threads=6 / lookahead_threads=1 / sliced_threads=0 / nr=0 / decimate=0 / interlaced=0 / bluray_compat=0 / constrained_intra=0 / bframes=12 / b_pyramid=2 / b_adapt=2 / b_bias=0 / direct=3 / weightb=1 / open_gop=0 / weightp=2 / keyint=240 / keyint_min=23 / scenecut=40 / intra_refresh=0 / rc_lookahead=40 / rc=2pass / mbtree=1 / bitrate=812 / ratetol=1.0 / qcomp=0.60 / qpmin=0 / qpmax=69 / qpstep=4 / cplxblur=20.0 / qblur=0.5 / ip_ratio=1.40 / aq=3:1.00
Default : Да
Forced : Нет

Аудио
Идентификатор : 2
Формат : AAC
Формат/Информация : Advanced Audio Codec
Профиль формата : HE-AAC / LC
Идентификатор кодека : A_AAC
Продолжительность : 1 ч. 57 м.
Битрейт : 76,0 Кбит/сек
Каналы : 2 канала
Расположение каналов : Front: L R
Частота : 48,0 КГц / 24,0 КГц
Частота кадров : 23,438 кадра/сек (1024 SPF)
Метод сжатия : С потерями
Задержка видео : 31 мс.
Размер потока : 63,7 Мбайт (9%)
Язык : Russian
Default : Да
Forced : Нет

Текст #1
Идентификатор : 3
Формат : UTF-8
Идентификатор кодека : S_TEXT/UTF8
Идентификатор кодека/Информация : UTF-8 Plain Text
Продолжительность : 1 ч. 51 м.
Битрейт : 50 бит/сек
ElementCount : 740
Размер потока : 41,4 Кбайт (0%)
Заголовок : Русские
Язык : Russian
Default : Нет
Forced : Нет

Текст #2
Идентификатор : 4
Формат : UTF-8
Идентификатор кодека : S_TEXT/UTF8
Идентификатор кодека/Информация : UTF-8 Plain Text
Продолжительность : 1 ч. 51 м.
Битрейт : 22 бит/сек
ElementCount : 762
Размер потока : 18,2 Кбайт (0%)
Заголовок : Английские
Язык : English
Default : Нет
Forced : Нет

Меню
00:00:00.000 : en:Main Title
00:07:45.965 : en:Shop Till You Drop... Dead
00:13:26.972 : en:Her Name in Blood
00:21:06.848 : en:A Life Sentence
00:24:57.579 : en:Mother Has Been Warned
00:35:09.690 : en:Officially Deceased
00:41:15.264 : en:Never the First Bullet
00:49:15.744 : en:Reeducation
00:55:00.714 : en:Barely Human
01:02:30.580 : en:No Sunday, No Exception
01:08:58.050 : en:Happy Final Birthday
01:16:13.860 : en:Abusing Feminine Wiles
01:28:49.032 : en:A Date Outside
01:34:41.008 : en:One Hell of a Present
01:41:27.414 : en:A Kiss Before Leaving
01:45:53.555 : en:Code Name "Josephine"




Торрент взят с http://zerkalo-rutor.org/torrent/737981 ... kinoray-p/
  • Торрент
Автор: Sonik Хэш: ---
Добавлен: 06 янв 2020, 05:04 Приватный: Нет (DHT включён)
Статус: Проверен
Размер: 745.87 МБ (782 104 031 байт)
Изменил: Sonik (06 янв 2020, 05:05)
Скачали: 293 (Раздающих: 0%)
Причина:
---
Здоровье: 100%
Сидеров: 11 Личеров: 2
Скорость раздачи: 0 байт/сек Скорость скачивания: 1.7 КБ/сек
Последний сидер: 1 час 26 минут 50 секунд назад Последний личер: 4 минуты 53 секунды назад
Для скачивания торрента необходимо зарегистрироваться или войти на трекер.

Вернуться в Зарубежное кино | Хорошее качество [HDTV и HD Rips, Web-DL, Sat-Rip, HDDVD-Rip]


Ресурс не предоставляет электронные версии произведений, а занимается лишь коллекционированием и каталогизацией ссылок, присылаемых и публикуемых на форуме нашими читателями. Если вы являетесь правообладателем какого-либо представленного материала и не желаете чтобы ссылка на него находилась в нашем каталоге, свяжитесь с нами и мы незамедлительно удалим её. Файлы для обмена на трекере предоставлены пользователями сайта, и администрация не несёт ответственности за их содержание. Просьба не заливать файлы, защищенные авторскими правами, а также файлы нелегального содержания!
cron