В тылу врага / Behind Enemy Lines (2001) WEB-DLRip | Open Matte

Модераторы: Модераторы, Модераторы фильмов

Sonik Аватара пользователя
Модератор
Модератор

Раздал: 2.03 ТБ
Скачал: 1.47 ТБ
Ратио: 1.385
Сообщения: 358

Зарегистрирован: 13 сен 2017, 00:19
В кошельке: 5,835.00
Награды: 4
Путь к журналисту (1) Журналист (1) Богат как фараон (1) С Днем Рождения! (1)
Заслуженная репутация: 4
  • Постеры
Информация о фильме
Название: В тылу врага
Оригинальное название: Behind Enemy Lines
Год выхода: 2001
Жанр: боевик, триллер, драма, военный
Режиссер: Джон Мур
В ролях: Оуэн Уилсон, Владимир Машков, Джин Хэкмен, Гэбриел Махт, Чарльз Малик Уитфилд, Дэвид Кит, Олек Крупа, Жоаким ди Алмейда, Марко Игонда, Эял Поделл

О фильме: Молодой лейтенант ВВС США Крис Бернетт, один из лучших военно-морских летчиков, по жизни мечтает о том, чтобы ему выпал шанс поучаствовать в настоящих боевых действиях вместо того, чтобы наблюдать за тренировками своих коллег. Однако его командир, адмирал Рейгарт считает, что Крис еще не готов… Да и боевых действий-то особо как-то не предвидится. Но вот, во время одной из разведывательных миссий, Бернетт фотографирует то, что не было предназначено для чужих глаз и его самолет сбивают. Летчик оказывается в тылу врага, который хочет уничтожить шпиона. Время идет, и адмирал Рейгарт, рискуя своей карьерой, решает нарушить все правила и организовать спасательную операцию, чтобы вернуть своего ученика…



Выпущено: Twentieth Century Fox Film Corporation, Davis Entertainment
Страна: США
Продолжительность: 1:45:58
Перевод: Дублированный
Субтитры: Нет

Файл
Качество: WEB-DLRip-AVC | Open Matte | Amazon
Видео: High@L4.1, ~2578 Кбит/с, 1022x576, 23.976 кадр/с
Аудио: 48 kHz, AC3, 3/2 (L,C,R,l,r) + LFE ch, ~448 kbps
Blu-ray vs WEB DL Amazon

Цитата Кто-то писал: Исходник видео WEB-DL Amazon STARZ (Периодически появляется логотип)
Open Matte версия фильма, имеет большее наполнение кадра, по сравнению с блюрэй.
x264 info:
x264 info: frame I:1277 Avg QP:16.86 size: 64942
x264 info: frame P:35997 Avg QP:18.48 size: 26181
x264 info: frame B:115196 Avg QP:20.82 size: 9294
x264 info: consecutive B-frames: 2.9% 4.1% 9.7% 23.7% 19.8% 31.3% 4.7% 2.0% 0.9% 0.3% 0.3%

General
Unique ID : 219156707037283446658486802272036602121 (0xA4E00BE4C76C8D66CAE47EC9B1604109)
Complete name : G:Видео_1В тылу врага_2001_WEB_DLRIP-AVC_O,M_[-=DoMiNo=-].mkv
Format : Matroska
Format version : Version 4 / Version 2
File size : 2.29 GiB
Duration : 1 h 46 min
Overall bit rate : 3 088 kb/s
Movie name : В тылу врага
Attachments : poster.jpg
ACTORS : Owen Wilson, Gene Hackman, Gabriel Macht, Charles Malik Whitfield, David Keith, Olek Krupa, Joaquim de Almeida, Vladimir Mashkov, Marko Igonda, Eyal Podell, Geoff Pierson, Aernout Van Lynden, Sam Jaeger, Shane Johnson, Don Winston, Laurence Mason, Leon Russom, Todd Boyce, Dorothy Lucey
COUNTRY : United States
DATE : 2001-11-30
DIRECTOR : John Moore
GENRE : боевик, драма, триллер, военный
ITUNEXTC : PG13
ORIGINAL_TITLE : Behind Enemy Lines
PRODUCER : John Davis
PUBLISHER : Davis Entertainment, 20th Century Fox
RATING : 6.10

Video
ID : 1
Format : AVC
Format/Info : Advanced Video Codec
Format profile : High@L4.1
Format settings : CABAC / 10 Ref Frames
Format settings, CABAC : Yes
Format settings, ReFrames : 10 frames
Codec ID : V_MPEG4/ISO/AVC
Duration : 1 h 46 min
Bit rate : 2 578 kb/s
Width : 1 022 pixels
Height : 576 pixels
Display aspect ratio : 16:9
Frame rate mode : Constant
Frame rate : 23.976 (24000/1001) FPS
Color space : YUV
Chroma subsampling : 4:2:0
Bit depth : 8 bits
Scan type : Progressive
Bits/(Pixel*Frame) : 0.183
Stream size : 1.91 GiB (84%)
Title : RIP_BY_-=DoMiNo=-
Writing library : x264 core 155 r2901M 7d0ff22
Encoding settings : cabac=1 / ref=10 / deblock=1:-3:-3 / analyse=0x3:0x133 / me=umh / subme=10 / psy=1 / psy_rd=1.00:0.10 / mixed_ref=1 / me_range=32 / chroma_me=1 / trellis=2 / 8x8dct=1 / cqm=0 / deadzone=21,11 / fast_pskip=1 / chroma_qp_offset=-3 / threads=6 / lookahead_threads=1 / sliced_threads=0 / nr=0 / decimate=1 / interlaced=0 / bluray_compat=0 / constrained_intra=0 / bframes=10 / b_pyramid=2 / b_adapt=2 / b_bias=0 / direct=3 / weightb=1 / open_gop=0 / weightp=2 / keyint=240 / keyint_min=24 / scenecut=40 / intra_refresh=0 / rc=crf / mbtree=0 / crf=19.0 / qcomp=0.60 / qpmin=0 / qpmax=69 / qpstep=4 / ip_ratio=1.40 / pb_ratio=1.30 / aq=1:1.00
Default : Yes
Forced : No
Color range : Limited
Color primaries : BT.709
Transfer characteristics : BT.709
Matrix coefficients : BT.709

Audio
ID : 2
Format : AC-3
Format/Info : Audio Coding 3
Codec ID : A_AC3
Duration : 1 h 46 min
Bit rate mode : Constant
Bit rate : 448 kb/s
Channel(s) : 6 channels
Channel positions : Front: L C R, Side: L R, LFE
Sampling rate : 48.0 kHz
Frame rate : 31.250 FPS (1536 SPF)
Bit depth : 16 bits
Compression mode : Lossy
Stream size : 340 MiB (15%)
Title : Дубляж
Language : Russian
Service kind : Complete Main
Default : Yes
Forced : No

Menu
00:00:00.000 : :Глава 1
00:09:05.462 : :Глава 2
00:18:09.755 : :Глава 3
00:27:36.488 : :Глава 4
00:36:36.027 : :Глава 5
00:46:27.243 : :Глава 6
00:55:29.993 : :Глава 7
01:04:27.989 : :Глава 8
01:13:30.406 : :Глава 9
01:22:55.179 : :Глава 10
01:32:15.071 : :Глава 11
01:41:29.750 : :Глава 12
  • Торрент
Автор: Sonik Хэш: ---
Добавлен: 25 ноя 2019, 04:59 Приватный: Нет (DHT включён)
Статус: Проверен
Размер: 2.29 ГБ (2 454 895 574 байт)
Изменил: Sonik (25 ноя 2019, 04:59)
Скачали: 0 (Раздающих: 0%)
Причина:
---
Здоровье: 50%
Сидеров: 1 Личеров: 2
Скорость раздачи: 0 байт/сек Скорость скачивания: 0 байт/сек
Последний сидер: 22 часа 45 минут 11 секунд назад Последний личер: 13 минут 53 секунды назад
Для скачивания торрента необходимо зарегистрироваться или войти на трекер.

Вернуться в Зарубежное кино | Хорошее качество [HDTV и HD Rips, Web-DL, Sat-Rip, HDDVD-Rip]


cron
Ресурс не предоставляет электронные версии произведений, а занимается лишь коллекционированием и каталогизацией ссылок, присылаемых и публикуемых на форуме нашими читателями. Если вы являетесь правообладателем какого-либо представленного материала и не желаете чтобы ссылка на него находилась в нашем каталоге, свяжитесь с нами и мы незамедлительно удалим её. Файлы для обмена на трекере предоставлены пользователями сайта, и администрация не несёт ответственности за их содержание. Просьба не заливать файлы, защищенные авторскими правами, а также файлы нелегального содержания!
cron