Выпускной / The Prom (2020) WEB-DL 1080p | Netflix

Модераторы: Модераторы, Модераторы фильмов

Sonik
Модератор
Модератор

Раздал: 3.75 ТБ
Скачал: 1.93 ТБ
Ратио: 1.946
Сообщения: 680

Зарегистрирован: 13 сен 2017, 00:19
В кошельке: 9,723.00
Награды: 5
Путь к журналисту (1) Журналист (1) Старший журналист (1) Богат как фараон (1)
С Днем Рождения! (1)
Заслуженная репутация: 4
  • Постеры
Информация о фильме
Название: Выпускной
Оригинальное название: The Prom
Год выхода: 2020
Жанр: Мюзикл, драма, комедия
Режиссер: Райан Мёрфи
В ролях: Николь Кидман, Мэрил Стрип, Кигэн-Майкл Ки, Керри Вашингтон, Джеймс Корден, Эндрю Рэннеллс, Кевин Чэмберлин, Мэри Кэй Плэйс, Джо Эллен Пеллман, Трейси Ульман

О фильме: В консервативном городке Эджуотер штата Индиана местной школьнице-лесбиянке не позволяют привести свою девушку на выпускной. Тем временем вышедшие в тираж звёзды Бродвея хотят помочь ей, но в первую очередь рассчитывают привлечь к себе внимание прессы.



Страна: США
Студия: NetFlix, Ryan Murphy Productions
Продолжительность: 02:12:18
Перевод: Дублированный | Netflix
Качество: WEB-DL 1080p
Видео: MPEG-4 AVC, 1920x1080, 3677 Kbit/s, 24.000 fps
Аудио #01: 48 kHz, E-AC3, 5.1, 640 Kbps | Netflix | RUS |
Аудио #02: 48 kHz, E-AC3+Atmos, 5.1, 768 Kbps | Оригинал | ENG |
Субтитры: Русские (Forced, full), английские

General
Unique ID : 325712089779724151576704687685724913803 (0xF509DDDFC2CEF7F4E916C497EE99C08B)
Complete name : E:VideoFirstThe.Prom.2020.NF.WEB-DL.1080p.seleZen.mkv
Format : Matroska
Format version : Version 4
File size : 4.70 GiB
Duration : 2 h 12 min
Overall bit rate mode : Variable
Overall bit rate : 5 087 kb/s
Movie name : The.Prom.2020 from seleZen
Encoded date : UTC 2020-12-11 08:10:58
Writing application : mkvmerge v40.0.0 ('Old Town Road + Pony') 64-bit
Writing library : libebml v1.3.9 + libmatroska v1.5.2

Video
ID : 1
Format : AVC
Format/Info : Advanced Video Codec
Format profile : Main@L4
Format settings : CABAC / 3 Ref Frames
Format settings, CABAC : Yes
Format settings, Reference : 3 frames
Codec ID : V_MPEG4/ISO/AVC
Duration : 2 h 12 min
Bit rate mode : Variable
Bit rate : 3 677 kb/s
Nominal bit rate : 3 941 kb/s
Maximum bit rate : 8 430 kb/s
Width : 1 920 pixels
Height : 1 080 pixels
Display aspect ratio : 16:9
Frame rate mode : Constant
Frame rate : 24.000 FPS
Color space : YUV
Chroma subsampling : 4:2:0
Bit depth : 8 bits
Scan type : Progressive
Bits/(Pixel*Frame) : 0.074
Stream size : 3.40 GiB (72%)
Writing library : x264 core 148 r2722 1b0121b
Encoding settings : cabac=1 / ref=3 / deblock=1:0:0 / analyse=0x1:0x111 / me=umh / subme=10 / psy=1 / psy_rd=1.00:0.00 / mixed_ref=1 / me_range=24 / chroma_me=1 / trellis=2 / 8x8dct=0 / cqm=0 / deadzone=21,11 / fast_pskip=1 / chroma_qp_offset=-2 / threads=8 / lookahead_threads=1 / sliced_threads=0 / nr=0 / decimate=1 / interlaced=0 / bluray_compat=0 / stitchable=1 / constrained_intra=0 / bframes=2 / b_pyramid=0 / b_adapt=2 / b_bias=0 / direct=3 / weightb=1 / open_gop=0 / weightp=2 / keyint=250 / keyint_min=24 / scenecut=0 / intra_refresh=0 / rc_lookahead=48 / rc=2pass / mbtree=1 / bitrate=3941 / ratetol=1.0 / qcomp=0.50 / qpmin=6 / qpmax=51 / qpstep=4 / cplxblur=20.0 / qblur=0.5 / vbv_maxrate=8430 / vbv_bufsize=11240 / nal_hrd=vbr / filler=0 / ip_ratio=1.40 / aq=1:1.00
Language : English
Default : Yes
Forced : No

Audio #1
ID : 2
Format : E-AC-3
Format/Info : Enhanced AC-3
Commercial name : Dolby Digital Plus
Codec ID : A_EAC3
Duration : 2 h 12 min
Bit rate mode : Constant
Bit rate : 640 kb/s
Channel(s) : 6 channels
Channel layout : L R C LFE Ls Rs
Sampling rate : 48.0 kHz
Frame rate : 31.250 FPS (1536 SPF)
Compression mode : Lossy
Stream size : 606 MiB (13%)
Title : Dub
Language : Russian
Service kind : Complete Main
Default : Yes
Forced : Yes

Audio #2
ID : 3
Format : E-AC-3 JOC
Format/Info : Enhanced AC-3 with Joint Object Coding
Commercial name : Dolby Digital Plus with Dolby Atmos
Codec ID : A_EAC3
Duration : 2 h 12 min
Bit rate mode : Constant
Bit rate : 768 kb/s
Channel(s) : 6 channels
Channel layout : L R C LFE Ls Rs
Sampling rate : 48.0 kHz
Frame rate : 31.250 FPS (1536 SPF)
Compression mode : Lossy
Stream size : 727 MiB (15%)
Title : English
Language : English
Service kind : Complete Main
Default : No
Forced : No
Complexity index : 16
Number of dynamic objects : 15
Bed channel count : 1 channel
Bed channel configuration : LFE

Text #1
ID : 4
Format : UTF-8
Codec ID : S_TEXT/UTF8
Codec ID/Info : UTF-8 Plain Text
Duration : 2 h 10 min
Bit rate : 1 b/s
Count of elements : 30
Stream size : 1.27 KiB (0%)
Title : Forced
Language : Russian
Default : Yes
Forced : Yes

Text #2
ID : 5
Format : UTF-8
Codec ID : S_TEXT/UTF8
Codec ID/Info : UTF-8 Plain Text
Duration : 2 h 10 min
Bit rate : 103 b/s
Count of elements : 1969
Stream size : 99.2 KiB (0%)
Title : Russian
Language : Russian
Default : No
Forced : No

Text #3
ID : 6
Format : UTF-8
Codec ID : S_TEXT/UTF8
Codec ID/Info : UTF-8 Plain Text
Duration : 2 h 10 min
Bit rate : 85 b/s
Count of elements : 2234
Stream size : 81.9 KiB (0%)
Title : English [SDH]
Language : English
Default : No
Forced : No
  • Торрент
Автор: Sonik Хэш: ---
Добавлен: 12 дек 2020, 05:57 Приватный: Нет (DHT включён)
Статус: Проверен
Размер: 4.7 ГБ (5 048 314 182 байт)
Изменил: Sonik (12 дек 2020, 05:57)
Скачали: 784 (Раздающих: 0%)
Причина:
---
Здоровье: 100%
Сидеров: 122 Личеров: 10
Скорость раздачи: 0 байт/сек Скорость скачивания: 0 байт/сек
Последний сидер: 4 дня 30 минут 5 секунд назад Последний личер: 4 дня 30 минут 5 секунд назад
Для скачивания торрента необходимо зарегистрироваться или войти на трекер.

Вернуться в Зарубежное кино | Высокое качество [Ultra HD, HD DVD, BD-Rip и Blu-ray]


cron
Ресурс не предоставляет электронные версии произведений, а занимается лишь коллекционированием и каталогизацией ссылок, присылаемых и публикуемых на форуме нашими читателями. Если вы являетесь правообладателем какого-либо представленного материала и не желаете чтобы ссылка на него находилась в нашем каталоге, свяжитесь с нами и мы незамедлительно удалим её. Файлы для обмена на трекере предоставлены пользователями сайта, и администрация не несёт ответственности за их содержание. Просьба не заливать файлы, защищенные авторскими правами, а также файлы нелегального содержания!
cron