Между ангелом и бесом / Les anges gardiens (1995) WEB-DLRip 720p | P, P2

Модераторы: Модераторы, Модераторы фильмов

Sonik
Модератор
Модератор

Раздал: 3.32 ТБ
Скачал: 1.9 ТБ
Ратио: 1.749
Сообщения: 630

Зарегистрирован: 13 сен 2017, 00:19
В кошельке: 9,113.00
Награды: 5
Путь к журналисту (1) Журналист (1) Старший журналист (1) Богат как фараон (1)
С Днем Рождения! (1)
Заслуженная репутация: 4
  • Постеры
Год выхода: 1995
Жанр: фэнтези, мелодрама, комедия, криминал, ...
Режиссер: Жан-Мари Пуаре
В ролях: Жерар Депардье, Кристиан Клавье, Ева Гримальди, Ив Ранье, Александр Эксимо, Лоран Жандрон, Ева Герцигова, Жан Шампьон, Анна Гейлор, Натали Сежан

О фильме: Герою Жерара Депардье, преуспевающему владельцу кабарэ со стриптизом, звонит из Гонконга друг из бурного прошлого, в котором их связывает долгом солдатской дружбы своевременно брошенная граната. Он просит его взять 20 процентов от суммы в 30 млн долларов и семилетнего мальчика-китайца с тем, чтобы доставить к матери в Париж. Договорить друг не успевает - его размазывают по стене грузовиком, гонящиеся за ним местные мафиози. Главный герой вылетает в Гонконг, находит мальчика, и теперь уже за ним начинается бешеная охота. Он ухитряется получить деньги в банке и вывезти мальчика при помощи священника, сопровождающего в приют трудновоспитуемых детишек. Деньги же подкладывает доброму католику в ежедневник с изображением Св. Екатерины. Боевые действия перемещаются на территорию Франции.



Страна: Франция
Студия: Funny Films, Gaumont International, TF1 Films Production, Vaudeville Productions
Продолжительность: 01:47:02
Перевод: Профессиональный (двухголосый, закадровый) ОРТ + Профессиональный (многоголосый, закадровый) РТР + Профессиональный (многоголосый, закадровый) 5 канал + Профессиональный (многоголосый, закадровый) Twister/R5 + Профессиональный (многоголосый, закадровый) Союз Видео + Профессиональный (многоголосый, закадровый) 2+2 + Профессиональный (многоголосый, закадровый) Enter-фільм

Файл
Формат: Matroska
Качество: WEB-DLRip 720p
Видео: 1280x544 at 25.000 fps, High@L4.1, ~4040 kbps
Аудио#1: Russian: 48 kHz, AC3, 2/0 (L,R) ch, ~192 kbps avg |Двухголосый закадровый, ОРТ|
Аудио#2: Russian: 48 kHz, AC3, 2/0 (L,R) ch, ~192 kbps avg |Многоголосый закадровый, РТР|
Аудио#3: Russian: 48 kHz, AC3, 2/0 (L,R) ch, ~192 kbps avg |Многоголосый закадровый, 5 канал|
Аудио#4: Russian: 48 kHz, AC3, 2/0 (L,R) ch, ~192 kbps avg |Многоголосый закадровый, Twister/R5|
Аудио#5: Russian: 48 kHz, AC3, 2/0 (L,R) ch, ~192 kbps avg |Многоголосый закадровый, Союз Видео|
Аудио#6: Ukrainian: 48 kHz, AC3, 2/0 (L,R) ch, ~192 kbps avg |Многоголосый закадровый, 2+2|
Аудио#7: Ukrainian: 48 kHz, AC3, 2/0 (L,R) ch, ~192 kbps avg |Многоголосый закадровый, Enter-фільм|
Аудио#8: French: 48 kHz, AC3, 3/2 (L,C,R,l,r) + LFE ch, ~448 kbps avg |DVD R2|
Субтитры: Russian (R5), French, English

Оригинальное название фильма — «Ангелы-хранители».
General
Unique ID : 123988193721524847214550775888038728458 (0x5D4741EBC62A6217EB00326B3A5E130A)
Complete name : Между ангелом и бесом.(1995).WEB-DLRIP.720p.[-=DoMiNo=-].mkv
Format : Matroska
Format version : Version 4 / Version 2
File size : 4.37 GiB
Duration : 1 h 47 min
Overall bit rate : 5 846 kb/s
Movie name : Между ангелом и бесом
Deion : Герою Жерара Депардье, преуспевающему владельцу кабарэ со стриптизом, звонит из Гонконга друг из бурного прошлого, в котором их связывает долгом солдатской дружбы своевременно брошенная граната. Он просит его взять 20 процентов от суммы в 30 млн долларов и семилетнего мальчика-китайца с тем, чтобы доставить к матери в Париж. Договорить друг не успевает — его размазывают по стене грузовиком, гонящиеся за ним местные мафиози.Главный герой вылетает в Гонконг, находит мальчика, и теперь уже за ним начинается бешеная охота. Он ухитряется получить деньги в банке и вывезти мальчика при помощи священника, сопровождающего в приют трудновоспитуемых детишек. Деньги же подкладывает доброму католику в ежедневник с изображением Св. Екатерины. Боевые действия перемещаются на территорию Франции.
Attachments : poster.jpg
COMPOSER : Эрик Леви
COUNTRY : Франция
DATE : 1995
DIRECTOR : Жан-Мари Пуаре
IMDB_RATING : 5.80
ITUNEXTC : ru-movie|16+|375|
MEDIA_TYPE : 9
ORIGINAL_TITLE : Les anges gardiens
PRODUCER : Ален Терзян, Чарльз Ванг
RATING : 7.626
WRITER : Кристиан Клавье, Жан-Мари Пуаре
Video
ID : 1
Format : AVC
Format/Info : Advanced Video Codec
Format profile : High@L4.1
Format settings, CABAC : Yes
Format settings, ReFrames : 9 frames
Codec ID : V_MPEG4/ISO/AVC
Duration : 1 h 47 min
Bit rate : 4 040 kb/s
Width : 1 280 pixels
Height : 544 pixels
Display aspect ratio : 2.35:1
Frame rate mode : Constant
Frame rate : 25.000 FPS
Color space : YUV
Chroma subsampling : 4:2:0
Bit depth : 8 bits
Scan type : Progressive
Bits/(Pixel*Frame) : 0.232
Stream size : 2.94 GiB (67%)
Writing library : x264 core 148 r2762M 90a61ec
Encoding settings : cabac=1 / ref=9 / deblock=1:-3:-3 / analyse=0x3:0x133 / me=umh / subme=11 / psy=1 / psy_rd=1.00:0.10 / mixed_ref=1 / me_range=48 / chroma_me=1 / trellis=2 / 8x8dct=1 / cqm=0 / deadzone=21,11 / fast_pskip=0 / chroma_qp_offset=-3 / threads=5 / lookahead_threads=1 / sliced_threads=0 / nr=0 / decimate=1 / interlaced=0 / bluray_compat=0 / constrained_intra=0 / bframes=10 / b_pyramid=2 / b_adapt=2 / b_bias=0 / direct=3 / weightb=1 / open_gop=0 / weightp=2 / keyint=250 / keyint_min=25 / scenecut=40 / intra_refresh=0 / rc=2pass / mbtree=0 / bitrate=4040 / ratetol=1.0 / qcomp=0.60 / qpmin=0 / qpmax=69 / qpstep=4 / cplxblur=20.0 / qblur=0.5 / ip_ratio=1.40 / pb_ratio=1.30 / aq=1:1.00
Default : Yes
Forced : No
Color range : Limited
Color primaries : BT.709
Transfer characteristics : BT.709
Matrix coefficients : BT.709
DURATION : 01:47:02.400000000
Audio #1
ID : 2
Format : AC-3
Format/Info : Audio Coding 3
Mode extension : CM (complete main)
Format settings, Endianness : Big
Codec ID : A_AC3
Duration : 1 h 47 min
Bit rate mode : Constant
Bit rate : 192 kb/s
Channel(s) : 2 channels
Channel positions : Front: L R
Sampling rate : 48.0 kHz
Frame rate : 31.250 FPS (1536 spf)
Bit depth : 16 bits
Compression mode : Lossy
Stream size : 147 MiB (3%)
Title : AC3 2.0 192Kbps (Профессиональный, двухголосый - ОРТ)
Language : Russian
Default : Yes
Forced : No
DURATION : 01:47:01.184000000
Audio #2
ID : 3
Format : AC-3
Format/Info : Audio Coding 3
Mode extension : CM (complete main)
Format settings, Endianness : Big
Codec ID : A_AC3
Duration : 1 h 47 min
Bit rate mode : Constant
Bit rate : 192 kb/s
Channel(s) : 2 channels
Channel positions : Front: L R
Sampling rate : 48.0 kHz
Frame rate : 31.250 FPS (1536 spf)
Bit depth : 16 bits
Compression mode : Lossy
Stream size : 147 MiB (3%)
Title : AC3 2.0 192Kbps (Профессиональный, многоголосый - РТР)
Language : Russian
Default : No
Forced : No
DURATION : 01:47:01.792000000
Audio #3
ID : 4
Format : AC-3
Format/Info : Audio Coding 3
Mode extension : CM (complete main)
Format settings, Endianness : Big
Codec ID : A_AC3
Duration : 1 h 47 min
Bit rate mode : Constant
Bit rate : 192 kb/s
Channel(s) : 2 channels
Channel positions : Front: L R
Sampling rate : 48.0 kHz
Frame rate : 31.250 FPS (1536 spf)
Bit depth : 16 bits
Compression mode : Lossy
Stream size : 147 MiB (3%)
Title : AC3 2.0 192Kbps (Профессиональный, многоголосый - 5 канал)
Language : Russian
Default : No
Forced : No
DURATION : 01:47:01.792000000
Audio #4
ID : 5
Format : AC-3
Format/Info : Audio Coding 3
Mode extension : CM (complete main)
Format settings, Endianness : Big
Codec ID : A_AC3
Duration : 1 h 47 min
Bit rate mode : Constant
Bit rate : 192 kb/s
Channel(s) : 2 channels
Channel positions : Front: L R
Sampling rate : 48.0 kHz
Frame rate : 31.250 FPS (1536 spf)
Bit depth : 16 bits
Compression mode : Lossy
Stream size : 147 MiB (3%)
Title : AC3 2.0 192Kbps (Профессиональный, многоголосый - Twister, R5)
Language : Russian
Default : No
Forced : No
DURATION : 01:47:01.760000000
Audio #5
ID : 6
Format : AC-3
Format/Info : Audio Coding 3
Mode extension : CM (complete main)
Format settings, Endianness : Big
Codec ID : A_AC3
Duration : 1 h 47 min
Bit rate mode : Constant
Bit rate : 192 kb/s
Channel(s) : 2 channels
Channel positions : Front: L R
Sampling rate : 48.0 kHz
Frame rate : 31.250 FPS (1536 spf)
Bit depth : 16 bits
Compression mode : Lossy
Stream size : 147 MiB (3%)
Title : AC3 2.0 192Kbps (Профессиональный, многоголосый - Союз Видео)
Language : Russian
Default : No
Forced : No
DURATION : 01:46:59.936000000
Audio #6
ID : 7
Format : AC-3
Format/Info : Audio Coding 3
Mode extension : CM (complete main)
Format settings, Endianness : Big
Codec ID : A_AC3
Duration : 1 h 47 min
Bit rate mode : Constant
Bit rate : 192 kb/s
Channel(s) : 2 channels
Channel positions : Front: L R
Sampling rate : 48.0 kHz
Frame rate : 31.250 FPS (1536 spf)
Bit depth : 16 bits
Compression mode : Lossy
Stream size : 147 MiB (3%)
Title : AC3 2.0 192Kbps (Профессиональный, многоголосый - 2+2)
Language : Ukrainian
Default : No
Forced : No
DURATION : 01:47:01.760000000
Audio #7
ID : 8
Format : AC-3
Format/Info : Audio Coding 3
Mode extension : CM (complete main)
Format settings, Endianness : Big
Codec ID : A_AC3
Duration : 1 h 47 min
Bit rate mode : Constant
Bit rate : 192 kb/s
Channel(s) : 2 channels
Channel positions : Front: L R
Sampling rate : 48.0 kHz
Frame rate : 31.250 FPS (1536 spf)
Bit depth : 16 bits
Compression mode : Lossy
Stream size : 147 MiB (3%)
Title : AC3 2.0 192Kbps (Профессиональный, многоголосый - Enter-фільм)
Language : Ukrainian
Default : No
Forced : No
DURATION : 01:47:01.792000000
Audio #8
ID : 9
Format : AC-3
Format/Info : Audio Coding 3
Mode extension : CM (complete main)
Format settings, Endianness : Big
Codec ID : A_AC3
Duration : 1 h 47 min
Bit rate mode : Constant
Bit rate : 448 kb/s
Channel(s) : 6 channels
Channel positions : Front: L C R, Side: L R, LFE
Sampling rate : 48.0 kHz
Frame rate : 31.250 FPS (1536 spf)
Bit depth : 16 bits
Compression mode : Lossy
Stream size : 343 MiB (8%)
Title : AC3 5.1 448Kbps (Оригинал)
Language : French
Default : No
Forced : No
DURATION : 01:47:01.792000000
Text #1
ID : 10
Format : UTF-8
Codec ID : S_TEXT/UTF8
Codec ID/Info : UTF-8 Plain Text
Title : RUS
Language : Russian
Default : Yes
Forced : No
DURATION : 01:42:01.901000000
Text #2
ID : 11
Format : UTF-8
Codec ID : S_TEXT/UTF8
Codec ID/Info : UTF-8 Plain Text
Title : ENG
Language : English
Default : No
Forced : No
DURATION : 01:43:43.930000000
Text #3
ID : 12
Format : UTF-8
Codec ID : S_TEXT/UTF8
Codec ID/Info : UTF-8 Plain Text
Title : FRE
Language : French
Default : No
Forced : No
DURATION : 01:46:39.858000000
Menu
00:00:00.000 : fr:Le voleur
00:02:25.840 : fr:GÃnÃrique de dÃbut
00:05:32.400 : fr:Ma poule
00:08:46.000 : fr:Père Tarain
00:11:24.080 : fr:Le gosse
00:13:40.200 : fr:Poursuite dans Hong-Kong
00:16:59.080 : fr:Un petit service
00:24:03.680 : fr:Les bons de caisse
00:29:00.400 : fr:Embarquement immÃdiat
00:32:56.040 : fr:Retour en première
00:42:49.680 : fr:VÃrità et mensonges
00:49:46.440 : fr:La bonne conscience
00:52:47.960 : fr:Vade retro Satanas
00:59:20.560 : fr:Un curà dans le bast.ringue
01:04:31.720 : fr:Les triades attaquent
01:07:59.280 : fr:Un pretre extraordinaire
01:14:04.160 : fr:Chez la famille D'HervÃ
01:19:01.400 : fr:L'enlèvement
01:21:46.920 : fr:Schnoufe et compagnie
01:26:44.560 : fr:Les anges gardiens
01:31:55.160 : fr:Lily Wang
01:36:17.720 : fr:Chinese connection
01:39:41.000 : fr:Epilogue
01:42:01.760 : fr:GÃnÃrique de fin
  • Торрент
Автор: Sonik Хэш: ---
Добавлен: 02 окт 2020, 21:33 Приватный: Нет (DHT включён)
Статус: Проверен
Размер: 4.37 ГБ (4 692 970 901 байт)
Изменил: Sonik (02 окт 2020, 21:33)
Скачали: 1 (Раздающих: 0%)
Причина:
---
Здоровье: 100%
Сидеров: 11 Личеров: 1
Скорость раздачи: 0 байт/сек Скорость скачивания: 0 байт/сек
Последний сидер: 1 день 1 час 7 минут 27 секунд назад Последний личер: 1 день 1 час 7 минут 27 секунд назад
Для скачивания торрента необходимо зарегистрироваться или войти на трекер.

Вернуться в Зарубежное кино | Высокое качество [Ultra HD, HD DVD, BD-Rip и Blu-ray]


cron
Ресурс не предоставляет электронные версии произведений, а занимается лишь коллекционированием и каталогизацией ссылок, присылаемых и публикуемых на форуме нашими читателями. Если вы являетесь правообладателем какого-либо представленного материала и не желаете чтобы ссылка на него находилась в нашем каталоге, свяжитесь с нами и мы незамедлительно удалим её. Файлы для обмена на трекере предоставлены пользователями сайта, и администрация не несёт ответственности за их содержание. Просьба не заливать файлы, защищенные авторскими правами, а также файлы нелегального содержания!
cron