Молочные зубы / Babyteeth (2019) WEB-DL 720p | P

Модераторы: Модераторы, Модераторы фильмов

Sonik
Модератор
Модератор

Раздал: 3.36 ТБ
Скачал: 1.9 ТБ
Ратио: 1.772
Сообщения: 638

Зарегистрирован: 13 сен 2017, 00:19
В кошельке: 9,163.00
Награды: 5
Путь к журналисту (1) Журналист (1) Старший журналист (1) Богат как фараон (1)
С Днем Рождения! (1)
Заслуженная репутация: 4
  • Постеры
Информация о фильме
Название: Молочные зубы
Оригинальное название: Babyteeth
Год выхода: 2019
Жанр: Драма, комедия
Режиссер: Шеннон Мерфи
В ролях: Бен Мендельсон, Эсси Дэвис, Элайза Сканлен, Тоби Уоллес, Джорджина Симес, Эмили Барклай, Чарльз Граундс, Джастин Смит, Арка Дас, Присцилла Дуэи, Юджин Гилфеддер, Эдвард Лау, Джек Ябсли, Андреа Деметриадес, Квентин Юнг, Шеннон Дули

О фильме: Когда Милла встречает Мозеса, кажется, что у них ничего общего: она – робкий подросток с несерьезными родителями и серьезным диагнозом, он – вороватый бездельник, который соглашается потусоваться с Миллой ради дозы морфина. Первая любовь, неловкая и насмешливая, и задумчивая история о прощании с детством и с родителями сплетаются в нескольких солнечных днях накануне теплого австралийского Рождества.



Страна: Австралия
Студия: Whitefalk Films, Create NSW, Screen Australia
Продолжительность: 01:57:45
Перевод: Профессиональный многоголосый | Cтудия Мельница

Файл
Кодек: AVC
Качество: WEB-DL 720p | AMZN
Видео: MPEG-4 AVC, 3790 Kбит/с, 1200x720, 23.976 кадр/с
Аудио #1: Русский (АС3, 2 ch, 192 Кбит/с, 48.0 KHz) Профессиональный (многоголосый, закадровый) Cтудия Мельница
Аудио #2: Английский (АС3, 6 ch, 640 Кбит/с, 48.0 KHz)
Субтитры: Русские (Forced, Full (FOCS), английские
► Без Рекламы!
Трейлер

Источник: Babyteeth.2019.720p.AMZN.WEB-DL.DDP5.1.H.264-NTG
General
Unique ID : 206122146960930839082209881555343255052 (0x9B11AE7700CFF69691B11C173D8C260C)
Complete name : Babyteeth.2019.AMZN.WEB-DL.720p.mkv
Format : Matroska
Format version : Version 4
File size : 3.80 GiB
Duration : 1 h 57 min
Overall bit rate : 4 624 kb/s
Encoded date : UTC 2020-09-27 10:53:33
Writing application : mkvmerge v7.1.0 ('Good Love') 64bit built on Jul 27 2014 13:06:55
Writing library : libebml v1.3.0 + libmatroska v1.4.1
Video
ID : 1
Format : AVC
Format/Info : Advanced Video Codec
Format profile : High@L3.1
Format settings : CABAC / 4 Ref Frames
Format settings, CABAC : Yes
Format settings, Reference fra : 4 frames
Codec ID : V_MPEG4/ISO/AVC
Duration : 1 h 57 min
Bit rate mode : Constant
Bit rate : 3 790 kb/s
Nominal bit rate : 6 000 kb/s
Width : 1 200 pixels
Height : 720 pixels
Display aspect ratio : 5:3
Frame rate mode : Constant
Frame rate : 23.976 (24000/1001) FPS
Color space : YUV
Chroma subsampling : 4:2:0
Bit depth : 8 bits
Scan type : Progressive
Bits/(Pixel*Frame) : 0.183
Stream size : 3.12 GiB (82%)
Language : English
Default : Yes
Forced : No
Color range : Limited
Color primaries : BT.709
Transfer characteristics : BT.709
Matrix coefficients : BT.709
Audio #1
ID : 2
Format : AC-3
Format/Info : Audio Coding 3
Commercial name : Dolby Digital
Codec ID : A_AC3
Duration : 1 h 57 min
Bit rate mode : Constant
Bit rate : 192 kb/s
Channel(s) : 2 channels
Channel layout : L R
Sampling rate : 48.0 kHz
Frame rate : 31.250 FPS (1536 SPF)
Compression mode : Lossy
Stream size : 162 MiB (4%)
Title : MVO | Cтудия Мельница
Language : Russian
Service kind : Complete Main
Default : Yes
Forced : No
Audio #2
ID : 3
Format : AC-3
Format/Info : Audio Coding 3
Commercial name : Dolby Digital
Codec ID : A_AC3
Duration : 1 h 57 min
Bit rate mode : Constant
Bit rate : 640 kb/s
Channel(s) : 6 channels
Channel layout : L R C LFE Ls Rs
Sampling rate : 48.0 kHz
Frame rate : 31.250 FPS (1536 SPF)
Compression mode : Lossy
Stream size : 539 MiB (14%)
Language : English
Service kind : Complete Main
Default : No
Forced : No
Text #1
ID : 4
Format : UTF-8
Codec ID : S_TEXT/UTF8
Codec ID/Info : UTF-8 Plain Text
Duration : 1 h 46 min
Bit rate : 1 b/s
Count of elements : 27
Stream size : 1.29 KiB (0%)
Title : Forced
Language : Russian
Default : Yes
Forced : No
Text #2
ID : 5
Format : UTF-8
Codec ID : S_TEXT/UTF8
Codec ID/Info : UTF-8 Plain Text
Duration : 1 h 51 min
Bit rate : 66 b/s
Count of elements : 1154
Stream size : 54.2 KiB (0%)
Title : Full - Focs
Language : Russian
Default : No
Forced : No
Text #3
ID : 6
Format : UTF-8
Codec ID : S_TEXT/UTF8
Codec ID/Info : UTF-8 Plain Text
Duration : 1 h 50 min
Bit rate : 46 b/s
Count of elements : 1315
Stream size : 37.5 KiB (0%)
Language : English
Default : No
Forced : No
Text #4
ID : 7
Format : UTF-8
Codec ID : S_TEXT/UTF8
Codec ID/Info : UTF-8 Plain Text
Duration : 1 h 53 min
Bit rate : 47 b/s
Count of elements : 1485
Stream size : 39.8 KiB (0%)
Title : SDH
Language : English
Default : No
Forced : No
  • Торрент
Автор: Sonik Хэш: ---
Добавлен: 28 сен 2020, 01:03 Приватный: Нет (DHT включён)
Статус: Проверен
Размер: 3.8 ГБ (4 084 060 238 байт)
Изменил: Sonik (28 сен 2020, 01:03)
Скачали: 1 (Раздающих: 0%)
Причина:
---
Здоровье: 0%
Сидеров: 0 Личеров: 0
Скорость раздачи: 0 байт/сек Скорость скачивания: 0 байт/сек
Последний сидер: 11 дней 13 часов 7 минут 37 секунд назад Последний личер: 24 дня 1 час 41 минуту 11 секунд назад
Для скачивания торрента необходимо зарегистрироваться или войти на трекер.

Вернуться в Зарубежное кино | Высокое качество [Ultra HD, HD DVD, BD-Rip и Blu-ray]


Ресурс не предоставляет электронные версии произведений, а занимается лишь коллекционированием и каталогизацией ссылок, присылаемых и публикуемых на форуме нашими читателями. Если вы являетесь правообладателем какого-либо представленного материала и не желаете чтобы ссылка на него находилась в нашем каталоге, свяжитесь с нами и мы незамедлительно удалим её. Файлы для обмена на трекере предоставлены пользователями сайта, и администрация не несёт ответственности за их содержание. Просьба не заливать файлы, защищенные авторскими правами, а также файлы нелегального содержания!
cron