Джуманджи: Новый уровень / Jumanji: The Next Level (2019) DVD9 | Custom

Модераторы: Модераторы, Модераторы фильмов

Sonik Аватара пользователя
Модератор
Модератор

Раздал: 2.84 ТБ
Скачал: 1.84 ТБ
Ратио: 1.544
Сообщения: 552

Зарегистрирован: 13 сен 2017, 00:19
В кошельке: 7,811.00
Награды: 4
Путь к журналисту (1) Журналист (1) Богат как фараон (1) С Днем Рождения! (1)
Заслуженная репутация: 4
  • Постеры
Год выпуска: 2019
Производство: США / Sony, 7 Bucks Productions, Matt Tolmach Productions
Жанр: Фэнтези, боевик, комедия, приключения
Режиссер: Джейк Кэздан
Продюсеры: Дэни Гарсиа, Дуэйн Джонсон, Джейк Кэздан
Актеры: Дуэйн Джонсон, Джек Блэк, Кевин Харт, Карен Гиллан, Ник Джонас, Аквафина, Риз Дэрби, Дэнни ДеВито, Дэнни Гловер, Морган Тернер

Описание: Пытаясь спасти Спенсера, снова попавшего в игру, туда же отправляются и остальные. К их удивлению, правила Джуманджи изменились, и более того — на этот раз в игру затянуло дедулю Спенсера и его престарелого друга Майло. Чтобы выполнить задания и вернуться домой, друзьям предстоит отправиться в путешествие по ранее неизведанным и таинственным уголкам Джуманджи — от засушливой пустыни до заснеженных гор.



Перевод: Дублированный + Одноголосый закадровый (Михаил Яроцкий)
Субтитры: Английские, русские
Дата мировой премьеры: 4 декабря 2019
Дата российской премьеры: 12 декабря 2019, «WDSSPR»
Продолжительность: 02:03:02
Качество видео: DVD9
Видео: MPEG-2, 720x480@853x480 (NTSC 16:9), ~6000 Кбит/сек
Аудио 1: AC3 5.1, 384 Кбит/сек [Английский - оригинал]
Аудио 2: AC3 2.0, 192 Кбит/сек [Английский - описательный]
Аудио 3: AC3 5.1, 448 Кбит/сек [Русский - дублированный]
Аудио 4: DTS 5.1, 755 Кбит/сек [Русский - авторский]
Доп. материалы: Body Swapping: Snapping into Character, Back Together: Reuniting the Cast, Level Up: Making Jumanji: The Next Level, Previews (без перевода)

Title: Jumanji. The Next Level (2019) DVD9 NTSC
Size: 7.03 Gb ( 7 371 088,00 KBytes ) - DVD-9
Enabled regions: 1, 2, 3, 4, 5, 6, 7, 8
VTS_01 :
Play Length: 02:03:02
Video: NTSC 16:9 (720x480) VBR, Auto Letterboxed
Audio:
English, AC3, 3/2 (L,C,R,SL,SR)+LFE ch, 384 kbps, Delay 0 mSec
English, AC3, 2/0 (L,R) ch, 192 kbps, Delay 0 mSec
Russian, AC3, 3/2 (L,C,R,SL,SR)+LFE ch, 448 kbps, Delay 0 mSec
Russian, DTS, 3/2 (L,C,R,SL,SR), 768 kbps, Delay 0 mSec
Subtitles:
English
English
Russian
Russian
VTS_02 :
Play Length: 00:00:01
Video: NTSC 16:9 (720x480) VBR, Auto Letterboxed
Audio:
Not specified (Dolby AC3, 2 ch)
VTS_03 :
Play Length: 00:00:00+00:00:00
Video: NTSC 16:9 (720x480) VBR, Auto Letterboxed
VTS_04 :
Play Length: 00:00:00+00:05:30+00:04:05+00:13:33+{00:23:08}
Video: NTSC 16:9 (720x480) VBR, Auto Letterboxed
Audio:
English (Dolby AC3, 2 ch)
Subtitles:
English
VTS_05 :
Play Length: 00:00:00+00:00:00+00:00:00+00:00:00+00:00:00
Video: NTSC 16:9 (720x480) VBR, Auto Letterboxed
VTS_06 :
Play Length: 00:00:00+00:00:00+00:00:00+00:00:00+00:00:00
Video: NTSC 16:9 (720x480) VBR, Auto Letterboxed
VTS_07 :
Play Length: 00:00:00+00:00:00+00:00:00+00:00:00+00:00:00
Video: NTSC 16:9 (720x480) VBR, Auto Letterboxed
VTS_08 :
Play Length: 00:00:00+00:00:00
Video: NTSC 16:9 (720x480) VBR, Auto Pan&Scan
VTS_09 :
Play Length: 00:02:31+{00:02:31}
Video: NTSC 16:9 (720x480) VBR, Auto Letterboxed
Audio:
English (Dolby AC3, 2 ch)
VTS_10 :
Play Length: 00:09:51+{00:09:51}
Video: NTSC 16:9 (720x480) VBR, Auto Letterboxed
Audio:
English (Dolby AC3, 6 ch)
VTS_11 :
Play Length: 00:00:00+00:00:00
Video: NTSC 16:9 (720x480) VBR, Auto Letterboxed
VTS_12 :
Play Length: 00:00:14+{00:00:14}
Video: NTSC 16:9 (720x480) VBR, Auto Pan&Scan
Audio:
Not specified (Dolby AC3, 6 ch)
VTS_13 :
Play Length: 00:00:46
Video: NTSC 4:3 (720x480) VBR
Audio:
Espanol (Dolby AC3, 2 ch)
VTS_14 :
Play Length: 00:00:00+00:00:00+00:00:00+00:00:01+00:00:00+00:00:02+{00:00:00}+{00:00:00}+{00:00:00}+00:00:01+{00:00:00}+{00:00:00}+00:00:00+00:00:00+00:00:00+{00:00:00}+{00:00:00}+{00:00:01}+00:00:00+00:00:00+{00:00:00}+00:00:00+{00:00:00}+00:00:00
Video: NTSC 16:9 (720x480) VBR, Auto Letterboxed
Audio:
Not specified (Dolby AC3, 2 ch)
VTS_15 :
Play Length: 00:00:00+00:00:00+00:00:00+00:00:00+00:00:00+{00:00:00}+00:00:00+00:00:00+00:00:00+00:00:00+00:00:00+00:00:00+{00:00:00}+00:00:00+00:00:00
Video: NTSC 16:9 (720x480) VBR, Auto Letterboxed
Audio:
Not specified (Dolby AC3, 2 ch)
Общее
Полное имя : D:TorrentsJumanji. The Next Level (2019) DVD9 NTSCVIDEO_TSVTS_01_4.VOB
Формат : MPEG-PS
Размер файла : 1 024 Мбайт
Продолжительность : 18 м. 7 с.
Режим общего битрейта : Переменный
Общий поток : 7 901 Кбит/сек
Видео
Идентификатор : 224 (0xE0)
Формат : MPEG Video
Версия формата : Version 2
Профиль формата : Main@Main
Настройки формата : CustomMatrix / BVOP
Параметр BVOP формата : Да
Параметр матрицы формата : Выборочная
Параметр GOP формата : Variable
Продолжительность : 18 м. 6 с.
Вид битрейта : Переменный
Битрейт : 5 965 Кбит/сек
Максимальный битрейт : 7 000 Кбит/сек
Ширина : 720 пикселей
Высота : 480 пикселей
Соотношение сторон : 16:9
Частота кадров : 23,976 (24000/1001) кадра/сек
Цветовое пространство : YUV
Субдискретизация насыщенности : 4:2:0
Битовая глубина : 8 бит
Тип развёртки : Прогрессивная
Порядок развёртки : 2:3 Pulldown
Метод сжатия : С потерями
Бит/(Пиксели*Кадры) : 0.720
Временной код первого кадра : 02:06:40;28
Оригинал временного кода : Group of pictures header
Размер потока : 773 Мбайт (75%)
Аудио #1
Идентификатор : 189 (0xBD)-128 (0x80)
Формат : AC-3
Формат/Информация : Audio Coding 3
Коммерческое название : Dolby Digital
Режим смешивания : DVD-Video
Продолжительность : 18 м. 7 с.
Вид битрейта : Постоянный
Битрейт : 384 Кбит/сек
Каналы : 6 каналов
Channel layout : L R C LFE Ls Rs
Частота : 48,0 КГц
Частота кадров : 31,250 кадров/сек (1536 SPF)
Метод сжатия : С потерями
Задержка видео : -792 мс.
Размер потока : 49,8 Мбайт (5%)
Service kind : Complete Main
Аудио #2
Идентификатор : 189 (0xBD)-129 (0x81)
Формат : AC-3
Формат/Информация : Audio Coding 3
Коммерческое название : Dolby Digital
Режим смешивания : DVD-Video
Продолжительность : 18 м. 7 с.
Вид битрейта : Постоянный
Битрейт : 192 Кбит/сек
Каналы : 2 канала
Channel layout : L R
Частота : 48,0 КГц
Частота кадров : 31,250 кадров/сек (1536 SPF)
Метод сжатия : С потерями
Задержка видео : -760 мс.
Размер потока : 24,9 Мбайт (2%)
Service kind : Complete Main
Аудио #3
Идентификатор : 189 (0xBD)-130 (0x82)
Формат : AC-3
Формат/Информация : Audio Coding 3
Коммерческое название : Dolby Digital
Режим смешивания : DVD-Video
Продолжительность : 18 м. 7 с.
Вид битрейта : Постоянный
Битрейт : 448 Кбит/сек
Каналы : 6 каналов
Channel layout : L R C LFE Ls Rs
Частота : 48,0 КГц
Частота кадров : 31,250 кадров/сек (1536 SPF)
Метод сжатия : С потерями
Задержка видео : -824 мс.
Размер потока : 58,1 Мбайт (6%)
Service kind : Complete Main
Аудио #4
Идентификатор : 189 (0xBD)-139 (0x8B)
Формат : DTS
Формат/Информация : Digital Theater Systems
Режим смешивания : DVD-Video
Продолжительность : 18 м. 7 с.
Вид битрейта : Постоянный
Битрейт : 755 Кбит/сек
Каналы : 6 каналов
Channel layout : C L R Ls Rs LFE
Частота : 48,0 КГц
Частота кадров : 93,750 кадра/сек (512 SPF)
Битовая глубина : 24 бит
Метод сжатия : С потерями
Задержка видео : -856 мс.
Размер потока : 97,8 Мбайт (10%)
Текст #1
Идентификатор : 189 (0xBD)-32 (0x20)
Формат : RLE
Формат/Информация : Run-length encoding
Режим смешивания : DVD-Video
Задержка видео : 834 мс.
Текст #2
Идентификатор : 189 (0xBD)-33 (0x21)
Формат : RLE
Формат/Информация : Run-length encoding
Режим смешивания : DVD-Video
Задержка видео : 834 мс.
Текст #3
Идентификатор : 189 (0xBD)-34 (0x22)
Формат : RLE
Формат/Информация : Run-length encoding
Режим смешивания : DVD-Video
Задержка видео : 267 мс.
Меню
Исходник для этого релиза нашёл на зарубежном сайте. Предупреждающие надписи скрыл. Звуковые дорожки и субтитры взял с BDRip. Аудио обрабатывал (только DTS) UsEac3To и DTS-HD Master Audio Suite. Субтитры обрабатывал программой SubtitleEdit и DVD-lab PRO 2. DVD обрабатывал с помощью Adobe Photoshop, MuxMan и DvdReMakePro.
Меню исходника:


УЕХАЛ В СЕНАКОС!
  • Торрент
Автор: Sonik Хэш: ---
Добавлен: 06 июн 2020, 23:13 Приватный: Нет (DHT включён)
Статус: Проверен
Размер: 7.03 ГБ (7 547 994 112 байт)
Изменил: Sonik (06 июн 2020, 23:13)
Скачали: 0 (Раздающих: 0%)
Причина:
---
Здоровье: ???%
Сидеров: 0 Личеров: 2
Скорость раздачи: 0 байт/сек Скорость скачивания: 0 байт/сек
Последний сидер: Нет Последний личер: 1 день 12 часов 11 минут 43 секунды назад
Для скачивания торрента необходимо зарегистрироваться или войти на трекер.

Вернуться в Зарубежное кино | Высокое качество [Ultra HD, HD DVD, BD-Rip и Blu-ray]


Ресурс не предоставляет электронные версии произведений, а занимается лишь коллекционированием и каталогизацией ссылок, присылаемых и публикуемых на форуме нашими читателями. Если вы являетесь правообладателем какого-либо представленного материала и не желаете чтобы ссылка на него находилась в нашем каталоге, свяжитесь с нами и мы незамедлительно удалим её. Файлы для обмена на трекере предоставлены пользователями сайта, и администрация не несёт ответственности за их содержание. Просьба не заливать файлы, защищенные авторскими правами, а также файлы нелегального содержания!
cron