Детектор лжи / Deceiver [триллер, драма, криминал, детектив, 1997] WEB-DLRip 720p, Mvo

Модераторы: Модераторы, Модераторы фильмов

Sonik
Модератор
Модератор

Раздал: 2.53 ТБ
Скачал: 1.79 ТБ
Ратио: 1.410
Сообщения: 523

Зарегистрирован: 13 сен 2017, 00:19
В кошельке: 7,376.00
Награды: 4
Путь к журналисту (1) Журналист (1) Богат как фараон (1) С Днем Рождения! (1)
Заслуженная репутация: 4
  • Постеры
Название: Детектор лжи
Оригинальное название: Deceiver
Год выхода: 1997
Жанр: триллер, драма, криминал, детектив
Режиссер: Джонас Пейт, Джош Пейт
В ролях: Тим Рот, Крис Пенн, Майкл Рукер, Рене Зеллвегер, Эллен Бёрстин, Розанна Аркетт, Дон Уинстон, Майкл Паркс, Марк Дэймон, Дж. К. Куин, ...

О фильме: Совершено ужасное преступление — жестоко убита молодая девушка. Основной подозреваемый — капризный отпрыск богатых родителей Джемс Уолтер Уэйланд. Но убийца ли он? Это покажут напряженные допросы, которые превратятся в захватывающую игру трех профессионалов, выведывающих друг у друга самые мрачные тайны. Удастся ли выяснить, кто перед нами — убийца, алкоголик и психопат или невинный человек, ставший жертвой обстоятельств?
И кто допрашивает его — честные блюстители закона или хладнокровные мерзавцы? Их разделяет тонкая грань и между ними лишь беспристрастный детектор лжи…



Страна: США
Студия: MDP Worldwide
Продолжительность: 01:41:54
Перевод: Профессиональный (многоголосый, закадровый), авторский (одноголосый, закадровый)

Файл
Кодек: H.264
Качество: WEB-DLRip 720p
Видео: AVC, 1280x546 (2.35:1), 23.976 fps, 4797 kbps
Аудио #1: AC3, 48 kHz, 6 ch, 384 kbps - Русский, MVO R5 «Азимут»
Аудио #2: AC3, 48 kHz, 2 ch, 192 kbps - Русский, MVO ТВЦ
Аудио #3: AC3, 48 kHz, 6 ch, 384 kbps - Русский, AVO М.Яроцкий (kyberpunk)
Аудио #4: AC3, 48 kHz, 6 ch, 384 kbps - Английский, Original
Субтитры: Русские, английские
Релиз от:

General
Unique ID : 215897751631258849152016613013438146864 (0xA26C64FC979E1FF0B3DFF19D2AA12930)
Complete name : C:Детектор лжи.1997 (Т.Рот, М.Рукер) (1).mkv
Format : Matroska
Format version : Version 2
File size : 4.37 GiB
Duration : 1 h 41 min
Overall bit rate : 6 140 kb/s
Encoded date : UTC 2020-04-29 09:23:50
Writing application : mkvmerge v5.3.0 ('I could have danced') built on Feb 9 2012 10:38:07
Writing library : libebml v1.2.3 + libmatroska v1.3.0
Cover : Yes
Attachments : cover.jpg

Video
ID : 1
Format : AVC
Format/Info : Advanced Video Codec
Format profile : High@L4.1
Format settings : CABAC / 11 Ref Frames
Format settings, CABAC : Yes
Format settings, ReFrames : 11 frames
Codec ID : V_MPEG4/ISO/AVC
Duration : 1 h 41 min
Bit rate : 4 797 kb/s
Width : 1 280 pixels
Height : 546 pixels
Display aspect ratio : 2.35:1
Frame rate mode : Constant
Frame rate : 23.976 (24000/1001) FPS
Color space : YUV
Chroma subsampling : 4:2:0
Bit depth : 8 bits
Scan type : Progressive
Bits/(Pixel*Frame) : 0.286
Stream size : 3.33 GiB (76%)
Writing library : x264 core 160 r3000 33f9e14
Encoding settings : cabac=1 / ref=11 / deblock=1:-3:-3 / analyse=0x3:0x133 / me=umh / subme=11 / psy=1 / psy_rd=1.00:0.00 / mixed_ref=1 / me_range=32 / chroma_me=1 / trellis=2 / 8x8dct=1 / cqm=0 / deadzone=21,11 / fast_pskip=0 / chroma_qp_offset=-2 / threads=12 / lookahead_threads=3 / sliced_threads=0 / nr=0 / decimate=0 / interlaced=0 / bluray_compat=0 / constrained_intra=0 / bframes=11 / b_pyramid=2 / b_adapt=2 / b_bias=0 / direct=3 / weightb=1 / open_gop=0 / weightp=2 / keyint=240 / keyint_min=23 / scenecut=40 / intra_refresh=0 / rc_lookahead=60 / rc=2pass / mbtree=0 / bitrate=4797 / ratetol=1.0 / qcomp=0.65 / qpmin=0 / qpmax=69 / qpstep=4 / cplxblur=20.0 / qblur=0.5 / vbv_maxrate=50000 / vbv_bufsize=62500 / nal_hrd=none / filler=0 / ip_ratio=1.25 / pb_ratio=1.30 / aq=3:0.80
Language : English
Default : Yes
Forced : No
Color range : Limited
Color primaries : BT.709
Transfer characteristics : BT.709
Matrix coefficients : BT.709

Audio #1
ID : 2
Format : AC-3
Format/Info : Audio Coding 3
Commercial name : Dolby Digital
Codec ID : A_AC3
Duration : 1 h 41 min
Bit rate mode : Constant
Bit rate : 384 kb/s
Channel(s) : 6 channels
Channel layout : L R C LFE Ls Rs
Sampling rate : 48.0 kHz
Frame rate : 31.250 FPS (1536 SPF)
Bit depth : 16 bits
Compression mode : Lossy
Stream size : 280 MiB (6%)
Title : MVO | R5 «Азимут»
Language : Russian
Service kind : Complete Main
Default : No
Forced : No

Audio #2
ID : 3
Format : AC-3
Format/Info : Audio Coding 3
Commercial name : Dolby Digital
Codec ID : A_AC3
Duration : 1 h 41 min
Bit rate mode : Constant
Bit rate : 192 kb/s
Channel(s) : 2 channels
Channel layout : L R
Sampling rate : 48.0 kHz
Frame rate : 31.250 FPS (1536 SPF)
Bit depth : 16 bits
Compression mode : Lossy
Stream size : 140 MiB (3%)
Title : MVO | ТВЦ
Language : Russian
Service kind : Complete Main
Default : No
Forced : No

Audio #3
ID : 4
Format : AC-3
Format/Info : Audio Coding 3
Commercial name : Dolby Digital
Codec ID : A_AC3
Duration : 1 h 41 min
Bit rate mode : Constant
Bit rate : 384 kb/s
Channel(s) : 6 channels
Channel layout : L R C LFE Ls Rs
Sampling rate : 48.0 kHz
Frame rate : 31.250 FPS (1536 SPF)
Bit depth : 16 bits
Compression mode : Lossy
Stream size : 280 MiB (6%)
Title : AVO | М.Яроцкий
Language : Russian
Service kind : Complete Main
Default : No
Forced : No

Audio #4
ID : 5
Format : AC-3
Format/Info : Audio Coding 3
Commercial name : Dolby Digital
Codec ID : A_AC3
Duration : 1 h 41 min
Bit rate mode : Constant
Bit rate : 384 kb/s
Channel(s) : 6 channels
Channel layout : L R C LFE Ls Rs
Sampling rate : 48.0 kHz
Frame rate : 31.250 FPS (1536 SPF)
Bit depth : 16 bits
Compression mode : Lossy
Stream size : 280 MiB (6%)
Title : Original
Language : English
Service kind : Complete Main
Default : No
Forced : No

Text #1
ID : 6
Format : UTF-8
Codec ID : S_TEXT/UTF8
Codec ID/Info : UTF-8 Plain Text
Title : full
Language : Russian
Default : No
Forced : No

Text #2
ID : 7
Format : UTF-8
Codec ID : S_TEXT/UTF8
Codec ID/Info : UTF-8 Plain Text
Title : full
Language : English
Default : No
Forced : No

  • Торрент
Автор: Sonik Хэш: ---
Добавлен: 30 апр 2020, 02:16 Приватный: Нет (DHT включён)
Статус: Проверен
Размер: 4.37 ГБ (4 694 463 445 байт)
Изменил: Sonik (30 апр 2020, 02:16)
Скачали: 1 (Раздающих: 0%)
Причина:
---
Здоровье: 0%
Сидеров: 0 Личеров: 0
Скорость раздачи: 0 байт/сек Скорость скачивания: 0 байт/сек
Последний сидер: 27 дней 1 час 59 минут 13 секунд назад Последний личер: 28 дней 36 минут 6 секунд назад
Для скачивания торрента необходимо зарегистрироваться или войти на трекер.

Вернуться в Зарубежное кино | Высокое качество [Ultra HD, HD DVD, BD-Rip и Blu-ray]


cron
Ресурс не предоставляет электронные версии произведений, а занимается лишь коллекционированием и каталогизацией ссылок, присылаемых и публикуемых на форуме нашими читателями. Если вы являетесь правообладателем какого-либо представленного материала и не желаете чтобы ссылка на него находилась в нашем каталоге, свяжитесь с нами и мы незамедлительно удалим её. Файлы для обмена на трекере предоставлены пользователями сайта, и администрация не несёт ответственности за их содержание. Просьба не заливать файлы, защищенные авторскими правами, а также файлы нелегального содержания!
cron