Люди Икс: Тёмный Феникс / Dark Phoenix (2019) BDRip-HEVC 1080p | Лицензия

Модераторы: Модераторы, Модераторы фильмов

Sonik
Модератор
Модератор

Раздал: 2.21 ТБ
Скачал: 1.68 ТБ
Ратио: 1.312
Сообщения: 489

Зарегистрирован: 13 сен 2017, 00:19
В кошельке: 6,866.00
Награды: 4
Путь к журналисту (1) Журналист (1) Богат как фараон (1) С Днем Рождения! (1)
Заслуженная репутация: 4
  • Постеры
Название: Люди Икс: Тёмный Феникс
Оригинальное название: Dark Phoenix
Год выхода: 2019
Производство: США / Twentieth Century Fox, Bad Hat Harry Productions, Donners' Company
Жанр: Фантастика, боевик, приключения
Перевод: Дублированный
Продолжительность: 01:53:56
Режиссер: Саймон Кинберг
В ролях: Джеймс МакЭвой, Майкл Фассбендер, Дженнифер Лоуренс, Николас Холт, Софи Тёрнер, Тай Шеридан, Александра Шипп, Эван Питерс, Коди Смит-МакФи, Джессика Честейн

Описание: История Джин Грей, которая разворачивается в тот момент, когда героиня превращается в культового Тёмного Феникса. Во время опасной для жизни спасательной миссии в космосе девушка оказывается поражена таинственной космической силой, которая превращает её в одного из самых могущественных мутантов. В борьбе с этой всё более изменчивой мощью и со своими собственными демонами Джин выходит из-под контроля: раскалывает семью Людей Икс и угрожает уничтожить всю нашу планету.



Формат: MKV
Качество: BDRip-HEVC 1080p
Видео : HEVC/X.265, 1920x804, ~8 690 kb/s, 10 bit
Аудио 01: DTS, 6 ch, 768 kb/s - Русский дублированный
Аудио 02: AC3, 6 ch, 448 kb/s - Украинский дублированный
Аудио 03: DTS, 6 ch, 1509 kb/s - Английский
Субтитры: Русские (Forced, Full), украинские (Forced, Full), английские (Forced, Full, SDH)

General
Unique ID : 269081659725553368225525862073877730059 (0xCA6F3E1AB628977FF18EDAE5D839130B)
Complete name : D:Download / Люди Икс - Тёмный Феникс (2019).mkv
Format : Matroska
Format version : Version 4
File size : 9.09 GiB
Duration : 1 h 53 min
Overall bit rate : 11.4 Mb/s
Movie name : Люди Икс: Тёмный Феникс / X-Men: Dark Phoenix (2019)
Encoded date : UTC 2020-01-26 13:10:04
Writing application : mkvmerge v42.0.0 ('Overtime') 64-bit
Writing library : libebml v1.3.10 + libmatroska v1.5.2
Attachments : poster.jpg
Video
ID : 1
Format : HEVC
Format/Info : High Efficiency Video Coding
Format profile : Main 10@L4.1@High
Codec ID : V_MPEGH/ISO/HEVC
Duration : 1 h 53 min
Bit rate : 8 690 kb/s
Width : 1 920 pixels
Height : 804 pixels
Display aspect ratio : 2.40:1
Frame rate mode : Constant
Frame rate : 23.976 (24000/1001) FPS
Color space : YUV
Chroma subsampling : 4:2:0
Bit depth : 10 bits
Bits/(Pixel*Frame) : 0.235
Stream size : 6.92 GiB (76%)
Title : X-Men: Dark Phoenix
Writing library : x265 3.1+7-147fb92c5ed5:[Windows][clang 8.0.0][64 bit] 10bit
Encoding settings : cpuid=1111039 / frame-threads=13 / wpp / no-pmode / no-pme / no-psnr / no-ssim / log-level=3 / input-csp=1 / input-res=1920x804 / interlace=0 / total-frames=0 / level-idc=41 / high-tier=1 / uhd-bd=0 / ref=5 / allow-non-conformance / no-repeat-headers / annexb / no-aud / no-hrd / info / hash=0 / no-temporal-layers / open-gop / min-keyint=23 / keyint=240 / gop-lookahead=0 / bframes=8 / b-adapt=2 / b-pyramid / bframe-bias=0 / rc-lookahead=60 / lookahead-slices=4 / scenecut=40 / radl=0 / no-splice / no-intra-refresh / ctu=64 / min-cu-size=8 / rect / amp / max-tu-size=32 / tu-inter-depth=4 / tu-intra-depth=4 / limit-tu=0 / rdoq-level=2 / dynamic-rd=0.00 / no-ssim-rd / signhide / no-tskip / nr-intra=0 / nr-inter=0 / no-constrained-intra / no-strong-intra-smoothing / max-merge=5 / limit-refs=2 / limit-modes / me=3 / subme=7 / merange=57 / temporal-mvp / no-hme / weightp / weightb / no-analyze-src-pics / deblock=-3:-3 / no-sao / no-sao-non-deblock / rd=6 / early-skip / no-rskip / no-fast-intra / no-tskip-fast / no-cu-lossless / b-intra / no-splitrd-skip / rdpenalty=0 / psy-rd=2.00 / psy-rdoq=1.00 / no-rd-refine / no-lossless / cbqpoffs=0 / crqpoffs=0 / rc=crf / crf=17.0 / qcomp=0.60 / qpstep=4 / stats-write=0 / stats-read=0 / vbv-maxrate=50000 / vbv-bufsize=50000 / vbv-init=0.9 / crf-max=30.0 / crf-min=0.0 / ipratio=1.40 / pbratio=1.30 / aq-mode=2 / aq-strength=1.00 / no-cutree / zone-count=0 / no-strict-cbr / qg-size=32 / no-rc-grain / qpmax=69 / qpmin=0 / no-const-vbv / sar=1 / overscan=0 / videoformat=5 / range=0 / colorprim=1 / transfer=1 / colormatrix=1 / chromaloc=0 / display-window=0cll=0,0 / min-luma=0 / max-luma=1023 / log2-max-poc-lsb=8 / vui-timing-info / vui-hrd-info / slices=1 / no-opt-qp-pps / no-opt-ref-list-length-pps / no-multi-pass-opt-rps / scenecut-bias=0.05 / no-opt-cu-delta-qp / no-aq-motion / no-hdr / no-hdr-opt / no-dhdr10-opt / no-idr-recovery-sei / analysis-reuse-level=5 / scale-factor=0 / refine-intra=0 / refine-inter=0 / refine-mv=0 / refine-ctu-distortion=0 / no-limit-sao / ctu-info=0 / no-lowpass-dct / refine-analysis-type=-184094232 / copy-pic=1 / max-ausize-factor=1.0 / no-dynamic-refine / no-single-sei / no-hevc-aq / no-svt / no-field / qp-adaptation-range=1.00
Language : English
Default : Yes
Forced : No
Color range : Limited
Color primaries : BT.709
Transfer characteristics : BT.709
Matrix coefficients : BT.709
Audio #1
ID : 2
Format : DTS
Format/Info : Digital Theater Systems
Codec ID : A_DTS
Duration : 1 h 53 min
Bit rate mode : Constant
Bit rate : 768 kb/s
Channel(s) : 6 channels
Channel layout : C L R Ls Rs LFE
Sampling rate : 48.0 kHz
Frame rate : 93.750 FPS (512 SPF)
Bit depth : 24 bits
Compression mode : Lossy
Stream size : 626 MiB (7%)
Title : Дубляж
Language : Russian
Default : Yes
Forced : No
Audio #2
ID : 3
Format : AC-3
Format/Info : Audio Coding 3
Commercial name : Dolby Digital
Codec ID : A_AC3
Duration : 1 h 53 min
Bit rate mode : Constant
Bit rate : 448 kb/s
Channel(s) : 6 channels
Channel layout : L R C LFE Ls Rs
Sampling rate : 48.0 kHz
Frame rate : 31.250 FPS (1536 SPF)
Compression mode : Lossy
Stream size : 365 MiB (4%)
Title : Дубляж
Language : Ukrainian
Service kind : Complete Main
Default : No
Forced : No
Audio #3
ID : 4
Format : DTS
Format/Info : Digital Theater Systems
Codec ID : A_DTS
Duration : 1 h 53 min
Bit rate mode : Constant
Bit rate : 1 509 kb/s
Channel(s) : 6 channels
Channel layout : C L R Ls Rs LFE
Sampling rate : 48.0 kHz
Frame rate : 93.750 FPS (512 SPF)
Bit depth : 24 bits
Compression mode : Lossy
Stream size : 1.20 GiB (13%)
Title : Original
Language : English
Default : No
Forced : No
Text #1
ID : 5
Format : UTF-8
Codec ID : S_TEXT/UTF8
Codec ID/Info : UTF-8 Plain Text
Duration : 1 h 41 min
Bit rate : 1 b/s
Count of elements : 21
Stream size : 1.01 KiB (0%)
Title : Forced
Language : Russian
Default : Yes
Forced : Yes
Text #2
ID : 6
Format : UTF-8
Codec ID : S_TEXT/UTF8
Codec ID/Info : UTF-8 Plain Text
Duration : 1 h 52 min
Bit rate : 63 b/s
Count of elements : 1137
Stream size : 52.9 KiB (0%)
Title : Full
Language : Russian
Default : No
Forced : No
Text #3
ID : 7
Format : UTF-8
Codec ID : S_TEXT/UTF8
Codec ID/Info : UTF-8 Plain Text
Duration : 1 h 52 min
Bit rate : 0 b/s
Count of elements : 10
Stream size : 355 Bytes (0%)
Title : Forced
Language : Ukrainian
Default : No
Forced : No
Text #4
ID : 8
Format : UTF-8
Codec ID : S_TEXT/UTF8
Codec ID/Info : UTF-8 Plain Text
Duration : 1 h 52 min
Bit rate : 55 b/s
Count of elements : 1097
Stream size : 46.1 KiB (0%)
Title : Full
Language : Ukrainian
Default : No
Forced : No
Text #5
ID : 9
Format : UTF-8
Codec ID : S_TEXT/UTF8
Codec ID/Info : UTF-8 Plain Text
Duration : 31 min 20 s
Bit rate : 0 b/s
Count of elements : 4
Stream size : 169 Bytes (0%)
Title : Forced
Language : English
Default : No
Forced : No
Text #6
ID : 10
Format : UTF-8
Codec ID : S_TEXT/UTF8
Codec ID/Info : UTF-8 Plain Text
Duration : 1 h 43 min
Bit rate : 40 b/s
Count of elements : 1134
Stream size : 30.7 KiB (0%)
Title : Full
Language : English
Default : No
Forced : No
Text #7
ID : 11
Format : UTF-8
Codec ID : S_TEXT/UTF8
Codec ID/Info : UTF-8 Plain Text
Duration : 1 h 53 min
Bit rate : 43 b/s
Count of elements : 1414
Stream size : 36.4 KiB (0%)
Title : SDH
Language : English
Default : No
Forced : No
Menu
00:00:00.000 : en:00:00:00.000
00:03:28.875 : en:00:03:28.875
00:07:34.621 : en:00:07:34.621
00:11:42.201 : en:00:11:42.201
00:15:44.110 : en:00:15:44.110
00:18:37.408 : en:00:18:37.408
00:25:24.481 : en:00:25:24.481
00:31:40.357 : en:00:31:40.357
00:34:19.307 : en:00:34:19.307
00:40:07.447 : en:00:40:07.447
00:44:36.090 : en:00:44:36.090
00:49:07.778 : en:00:49:07.778
00:55:38.168 : en:00:55:38.168
00:58:57.409 : en:00:58:57.409
01:02:57.190 : en:01:02:57.190
01:10:40.111 : en:01:10:40.111
01:13:42.418 : en:01:13:42.418
01:19:33.477 : en:01:19:33.477
01:22:35.701 : en:01:22:35.701
01:25:49.061 : en:01:25:49.061
01:30:38.350 : en:01:30:38.350
01:32:48.188 : en:01:32:48.188
01:37:59.624 : en:01:37:59.624
01:45:01.045 : en:01:45:01.045

Видеоряд от: HANNIBAL
  • Торрент
Автор: Sonik Хэш: ---
Добавлен: 30 янв 2020, 01:24 Приватный: Нет (DHT включён)
Статус: Проверен
Размер: 9.09 ГБ (9 758 104 551 байт)
Изменил: Sonik (30 янв 2020, 01:24)
Скачали: 3887 (Раздающих: 0%)
Причина:
---
Здоровье: 100%
Сидеров: 128 Личеров: 20
Скорость раздачи: 0 байт/сек Скорость скачивания: 0 байт/сек
Последний сидер: 1 день 13 часов 48 секунд назад Последний личер: 1 день 13 часов 48 секунд назад
Для скачивания торрента необходимо зарегистрироваться или войти на трекер.

Вернуться в Зарубежное кино | Высокое качество [Ultra HD, HD DVD, BD-Rip и Blu-ray]


cron
Ресурс не предоставляет электронные версии произведений, а занимается лишь коллекционированием и каталогизацией ссылок, присылаемых и публикуемых на форуме нашими читателями. Если вы являетесь правообладателем какого-либо представленного материала и не желаете чтобы ссылка на него находилась в нашем каталоге, свяжитесь с нами и мы незамедлительно удалим её. Файлы для обмена на трекере предоставлены пользователями сайта, и администрация не несёт ответственности за их содержание. Просьба не заливать файлы, защищенные авторскими правами, а также файлы нелегального содержания!
cron