1917 / 1917 (2019) Screener 1080p

Модераторы: Модераторы, Модераторы фильмов

Сообщение 30 янв 2020, 01:23
Sonik
Модератор
Модератор

Раздал: 3.15 ТБ
Скачал: 1.89 ТБ
Ратио: 1.665
Сообщения: 607

Зарегистрирован: 13 сен 2017, 00:19
В кошельке: 8,838.00
Награды: 5
Путь к журналисту (1) Журналист (1) Старший журналист (1) Богат как фараон (1)
С Днем Рождения! (1)
Заслуженная репутация: 4
  • Постеры
Информация о фильме
Название: 1917
Оригинальное название: 1917
Год выхода: 2019
Жанр: Военный, история, драма
Режиссер: Сэм Мендес
В ролях: Эндрю Скотт, Бенедикт Камбербэтч, Колин Фёрт, Ричард Мэдден, Дин-Чарльз Чепмен, Джордж МакКэй, Марк Стронг, Дэниэл Мейс, Эдриан Скарборо, Крис Уолли, Пип Картер, Энди Аполло, Пол Тинто, Джозеф Дэвис, Билли Постлтуэйт, Гэбриел Акувудике

О фильме: 1917 год, разгар Первой мировой войны. Двум юным солдатам поручают смертельно опасную миссию. Они должны пересечь вражескую территорию и доставить секретное сообщение, которое предотвратит неминуемую гибель сотен солдат… Смогут ли они выиграть гонку со временем?



Страна: Великобритания, США
Студия: Amblin Partners, DreamWorks, Neal Street Productions
Продолжительность: 01:58:58
Перевод: Любительский двухголосый, любительский одноголосый

Файл
Кодек: AVC
Качество: Screener 1080p
Видео: MPEG-4 AVC, 3448 Kбит/с, 1920x804, 23.976 кадр/с
Аудио #1: Русский (АС3, 2 ch, 256 Кбит/с, 48.0 KHz) Любительский (двухголосый, закадровый) LakeFilms
Аудио #2: Русский (АС3, 2 ch, 256 Кбит/с, 48.0 KHz) Любительский (одноголосый, закадровый) Sound Film
Аудио #3: Английский (АС3, 2 ch, 256 Кбит/с, 48.0 KHz)
Субтитры: Русские (Full, (MENINSUB), английские
► Без Рекламы!

Источник: 1917.2019.1080p.SCREENER.x264-FoE
General
Unique ID : 212822268678684062046863120488729447149 (0xA01C13F8563EEB0F99D59E868BCC8AED)
Complete name : 1917.2019.WEBRip.1080p.mkv
Format : Matroska
Format version : Version 4
File size : 3.51 GiB
Duration : 1 h 58 min
Overall bit rate : 4 219 kb/s
Encoded date : UTC 2020-01-26 17:48:00
Writing application : mkvmerge v7.1.0 ('Good Love') 64bit built on Jul 27 2014 13:06:55
Writing library : libebml v1.3.0 + libmatroska v1.4.1

Video
ID : 1
Format : AVC
Format/Info : Advanced Video Codec
Format profile : Main@L4
Format settings : CABAC / 4 Ref Frames
Format settings, CABAC : Yes
Format settings, Reference fra : 4 frames
Codec ID : V_MPEG4/ISO/AVC
Duration : 1 h 58 min
Bit rate : 3 448 kb/s
Width : 1 920 pixels
Height : 804 pixels
Display aspect ratio : 2.40:1
Frame rate mode : Constant
Frame rate : 23.976 (24000/1001) FPS
Color space : YUV
Chroma subsampling : 4:2:0
Bit depth : 8 bits
Scan type : Progressive
Bits/(Pixel*Frame) : 0.093
Stream size : 2.87 GiB (82%)
Writing library : x264 core 155 r2901 7d0ff22
Encoding settings : cabac=1 / ref=2 / deblock=1:0:0 / analyse=0x1:0x111 / me=hex / subme=6 / psy=1 / psy_rd=1.00:0.00 / mixed_ref=1 / me_range=16 / chroma_me=1 / trellis=1 / 8x8dct=0 / cqm=0 / deadzone=21,11 / fast_pskip=1 / chroma_qp_offset=-2 / threads=12 / lookahead_threads=2 / sliced_threads=0 / nr=0 / decimate=1 / interlaced=0 / bluray_compat=0 / constrained_intra=0 / bframes=3 / b_pyramid=2 / b_adapt=1 / b_bias=0 / direct=1 / weightb=1 / open_gop=0 / weightp=1 / keyint=240 / keyint_min=24 / scenecut=40 / intra_refresh=0 / rc_lookahead=30 / rc=crf / mbtree=1 / crf=22.0 / qcomp=0.60 / qpmin=0 / qpmax=69 / qpstep=4 / vbv_maxrate=20000 / vbv_bufsize=25000 / crf_max=0.0 / nal_hrd=none / filler=0 / ip_ratio=1.40 / aq=1:1.00
Language : English
Default : Yes
Forced : No
Color range : Limited
Color primaries : BT.709
Transfer characteristics : BT.709
Matrix coefficients : BT.709

Audio #1
ID : 2
Format : AC-3
Format/Info : Audio Coding 3
Commercial name : Dolby Digital
Codec ID : A_AC3
Duration : 1 h 58 min
Bit rate mode : Constant
Bit rate : 256 kb/s
Channel(s) : 2 channels
Channel layout : L R
Sampling rate : 48.0 kHz
Frame rate : 31.250 FPS (1536 SPF)
Compression mode : Lossy
Stream size : 218 MiB (6%)
Title : LakeFilms
Language : Russian
Service kind : Complete Main
Default : Yes
Forced : No

Audio #2
ID : 3
Format : AC-3
Format/Info : Audio Coding 3
Commercial name : Dolby Digital
Codec ID : A_AC3
Duration : 1 h 58 min
Bit rate mode : Constant
Bit rate : 256 kb/s
Channel(s) : 2 channels
Channel layout : L R
Sampling rate : 48.0 kHz
Frame rate : 31.250 FPS (1536 SPF)
Compression mode : Lossy
Stream size : 218 MiB (6%)
Title : Sound Film
Language : Russian
Service kind : Complete Main
Default : No
Forced : No

Audio #3
ID : 4
Format : AC-3
Format/Info : Audio Coding 3
Commercial name : Dolby Digital
Codec ID : A_AC3
Duration : 1 h 58 min
Bit rate mode : Constant
Bit rate : 256 kb/s
Channel(s) : 2 channels
Channel layout : L R
Sampling rate : 48.0 kHz
Frame rate : 31.250 FPS (1536 SPF)
Compression mode : Lossy
Stream size : 218 MiB (6%)
Language : English
Service kind : Complete Main
Default : No
Forced : No

Text #1
ID : 5
Format : UTF-8
Codec ID : S_TEXT/UTF8
Codec ID/Info : UTF-8 Plain Text
Duration : 1 h 46 min
Bit rate : 58 b/s
Count of elements : 837
Stream size : 45.7 KiB (0%)
Language : Russian
Default : No
Forced : No

Text #2
ID : 6
Format : UTF-8
Codec ID : S_TEXT/UTF8
Codec ID/Info : UTF-8 Plain Text
Duration : 1 h 48 min
Bit rate : 33 b/s
Count of elements : 814
Stream size : 26.5 KiB (0%)
Language : English
Default : No
Forced : No

Menu
00:00:00.000 : en:Chapter 1
00:13:36.816 : en:Chapter 2
00:23:39.584 : en:Chapter 3
00:30:48.012 : en:Chapter 4
00:40:53.617 : en:Chapter 5
00:54:49.452 : en:Chapter 6
01:02:16.899 : en:Chapter 7
01:12:02.484 : en:Chapter 8
01:23:04.604 : en:Chapter 9
01:32:23.704 : en:Chapter 10
01:41:43.263 : en:Chapter 11
  • Торрент
Автор: Sonik Хэш: ---
Добавлен: 30 янв 2020, 01:23 Приватный: Нет (DHT включён)
Статус: Проверен
Размер: 3.51 ГБ (3 763 917 725 байт)
Изменил: Sonik (30 янв 2020, 01:23)
Скачали: 46940 (Раздающих: 0%)
Причина:
---
Здоровье: 100%
Сидеров: 225 Личеров: 5
Скорость раздачи: 0 байт/сек Скорость скачивания: 0 байт/сек
Последний сидер: 1 месяц 6 дней 12 часов 16 минут 34 секунды назад Последний личер: 1 месяц 6 дней 12 часов 16 минут 34 секунды назад
Для скачивания торрента необходимо зарегистрироваться или войти на трекер.

Вернуться в Зарубежное кино | Высокое качество [Ultra HD, HD DVD, BD-Rip и Blu-ray]


cron
Ресурс не предоставляет электронные версии произведений, а занимается лишь коллекционированием и каталогизацией ссылок, присылаемых и публикуемых на форуме нашими читателями. Если вы являетесь правообладателем какого-либо представленного материала и не желаете чтобы ссылка на него находилась в нашем каталоге, свяжитесь с нами и мы незамедлительно удалим её. Файлы для обмена на трекере предоставлены пользователями сайта, и администрация не несёт ответственности за их содержание. Просьба не заливать файлы, защищенные авторскими правами, а также файлы нелегального содержания!
cron