Маленькие чудовища / Little Monsters [Ужасы, комедия, 2019] BDRemux 1080p, Dub [iTunes]

Модераторы: Модераторы, Модераторы фильмов

Sonik Аватара пользователя
Модератор
Модератор

Раздал: 2.84 ТБ
Скачал: 1.86 ТБ
Ратио: 1.527
Сообщения: 553

Зарегистрирован: 13 сен 2017, 00:19
В кошельке: 8,126.00
Награды: 5
Путь к журналисту (1) Журналист (1) Старший журналист (1) Богат как фараон (1)
С Днем Рождения! (1)
Заслуженная репутация: 4
  • Постеры
Информация о фильме
Название: Маленькие чудовища
Оригинальное название: Little Monsters
Год выхода: 2019
Жанр: Ужасы, комедия
Режиссер: Абе Форсайт
В ролях: Лупита Нионго, Джош Гэд, Стивен Пикок, Кэт Стюарт, Александр Инглэнд, Надя Таунсенд, Феликс Уильямсон, Маршалл Напье, Генри Никсон, Джейсон Чонг, Дизель Ла Торрак, Саския Бурмайстер, Рахель Абдулрахман



О фильме: Учительница начальных классов везёт группу детей за город на экскурсию, когда на местности происходит вспышка зомби-вируса. Чтобы спастись и не травмировать детскую психику, женщина убеждает малышей в том, что все эти зомби, кровь, кишки - ненастоящие, а всё происходящее - просто игра. Странная, но весёлая. И вот тот дядя корчится не от боли, а от радости. И не корчится, а смеётся.

Страна: Австралия, Великобритания, США
Студия: Made Up Stories, Protagonist Pictures, Snoot Entertainment
Продолжительность: 01:34:09
Перевод: Дублированный | iTunes
Качество: BDRemux 1080p
Видео: MPEG-4 AVC, 1920x1080, 33.0 Mbit/s, 23.976 fps
Аудио #01: 48 kHz, AC3, 5.1, 384 Kbps | iTunes | RUS |
Аудио #02: 48 kHz, DTS-HD MA, 5.1, 3684 Kbps | Оригинал | ENG |
Субтитры: Русские (Full), английские



General
Unique ID : 45812802706247108991508220089113720408 (0x22773990378C7CD34678930C05F33658)
Complete name : E:Video111Little.Monsters.2019.BDREMUX.1080p.seleZen.mkv
Format : Matroska
Format version : Version 4
File size : 24.3 GiB
Duration : 1 h 34 min
Overall bit rate mode : Variable
Overall bit rate : 37.0 Mb/s
Movie name : Little Monsters 2019 from селезень
Encoded date : UTC 2020-01-04 12:22:25
Writing application : mkvmerge v40.0.0 ('Old Town Road + Pony') 64-bit
Writing library : libebml v1.3.9 + libmatroska v1.5.2

Video
ID : 1
Format : AVC
Format/Info : Advanced Video Codec
Format profile : High@L4.1
Format settings : CABAC / 3 Ref Frames
Format settings, CABAC : Yes
Format settings, Reference : 3 frames
Codec ID : V_MPEG4/ISO/AVC
Duration : 1 h 33 min
Bit rate mode : Variable
Bit rate : 33.0 Mb/s
Maximum bit rate : 37.0 Mb/s
Width : 1 920 pixels
Height : 1 080 pixels
Display aspect ratio : 16:9
Frame rate mode : Constant
Frame rate : 23.976 (24000/1001) FPS
Color space : YUV
Chroma subsampling : 4:2:0
Bit depth : 8 bits
Scan type : Progressive
Bits/(Pixel*Frame) : 0.664
Stream size : 21.6 GiB (89%)
Language : German
Default : Yes
Forced : No

Audio #1
ID : 2
Format : AC-3
Format/Info : Audio Coding 3
Commercial name : Dolby Digital
Codec ID : A_AC3
Duration : 1 h 33 min
Bit rate mode : Constant
Bit rate : 384 kb/s
Channel(s) : 6 channels
Channel layout : L R C LFE Ls Rs
Sampling rate : 48.0 kHz
Frame rate : 31.250 FPS (1536 SPF)
Compression mode : Lossy
Stream size : 258 MiB (1%)
Title : iTunes
Language : Russian
Service kind : Complete Main
Default : Yes
Forced : Yes

Audio #2
ID : 3
Format : DTS XLL
Format/Info : Digital Theater Systems
Commercial name : DTS-HD Master Audio
Codec ID : A_DTS
Duration : 1 h 34 min
Bit rate mode : Variable
Bit rate : 3 684 kb/s
Channel(s) : 6 channels
Channel layout : C L R Ls Rs LFE
Sampling rate : 48.0 kHz
Frame rate : 93.750 FPS (512 SPF)
Bit depth : 24 bits
Compression mode : Lossless
Stream size : 2.42 GiB (10%)
Title : Original
Language : English
Default : No
Forced : No

Text #1
ID : 4
Format : UTF-8
Codec ID : S_TEXT/UTF8
Codec ID/Info : UTF-8 Plain Text
Duration : 1 h 33 min
Bit rate : 115 b/s
Count of elements : 1513
Stream size : 78.9 KiB (0%)
Title : Full
Language : Russian
Default : No
Forced : No

Text #2
ID : 5
Format : UTF-8
Codec ID : S_TEXT/UTF8
Codec ID/Info : UTF-8 Plain Text
Duration : 1 h 33 min
Bit rate : 90 b/s
Count of elements : 1820
Stream size : 61.8 KiB (0%)
Title : SDH
Language : English
Default : No
Forced : No

Menu
00:00:00.000 : en:Глава 01
00:07:27.572 : en:Глава 02
00:15:08.950 : en:Глава 03
00:23:21.150 : en:Глава 04
00:32:29.698 : en:Глава 05
00:38:50.662 : en:Глава 06
00:45:57.588 : en:Глава 07
00:53:14.316 : en:Глава 08
00:59:28.315 : en:Глава 09
01:08:30.773 : en:Глава 10
01:18:10.811 : en:Глава 11
01:25:47.351 : en:Глава 12


Релиз от:



Торрент взят с http://zerkalo-rutor.org/torrent/737826 ... en-itunes/
УЕХАЛ В СЕНАКОС!
  • Торрент
Автор: Sonik Хэш: ---
Добавлен: 05 янв 2020, 01:37 Приватный: Нет (DHT включён)
Статус: Проверен
Размер: 24.32 ГБ (26 112 458 811 байт)
Изменил: Sonik (05 янв 2020, 01:38)
Скачали: 594 (Раздающих: 0%)
Причина:
---
Здоровье: 33%
Сидеров: 12 Личеров: 36
Скорость раздачи: 0 байт/сек Скорость скачивания: 0 байт/сек
Последний сидер: 29 дней 11 часов 42 минуты 38 секунд назад Последний личер: 29 дней 11 часов 42 минуты 38 секунд назад
Для скачивания торрента необходимо зарегистрироваться или войти на трекер.

Вернуться в Зарубежное кино | Высокое качество [Ultra HD, HD DVD, BD-Rip и Blu-ray]


cron
Ресурс не предоставляет электронные версии произведений, а занимается лишь коллекционированием и каталогизацией ссылок, присылаемых и публикуемых на форуме нашими читателями. Если вы являетесь правообладателем какого-либо представленного материала и не желаете чтобы ссылка на него находилась в нашем каталоге, свяжитесь с нами и мы незамедлительно удалим её. Файлы для обмена на трекере предоставлены пользователями сайта, и администрация не несёт ответственности за их содержание. Просьба не заливать файлы, защищенные авторскими правами, а также файлы нелегального содержания!
cron