Черный гром / Flight of Fury [Боевик, триллер, 2007] WEB-DL 1080p, Dvo

Модераторы: Модераторы, Модераторы фильмов

Sonik Аватара пользователя
Модератор
Модератор

Раздал: 2.03 ТБ
Скачал: 1.47 ТБ
Ратио: 1.385
Сообщения: 358

Зарегистрирован: 13 сен 2017, 00:19
В кошельке: 5,835.00
Награды: 4
Путь к журналисту (1) Журналист (1) Богат как фараон (1) С Днем Рождения! (1)
Заслуженная репутация: 4
  • Постеры
Информация о фильме
Название: Черный гром
Оригинальное название: Flight of Fury
Год выхода: 2007
Жанр: Боевик, триллер
Режиссер: Майкл Койш
В ролях: Стивен Сигал, Стив Туссэн, Энгус МакИннес, Марк Базелей, Алки Дэвид, Тим Вудворд, Винченцо Николи, Кэти Джонс, Барт Сидлс, Гэри Купер, Кристина Теодореску, Ной Маргеттс, Карен Дэвид, Дэниэл Раймер

О фильме: Полковник Джон Сандс — специальный агент, работающий в секретном подразделении американских Воздушных сил. Он решает покинуть свою должность, но сталкивается с отказом начальства, по причине того, что знает слишком много засекреченной информации. Сандс самовольно покидает территорию военной базы и пускается в бега. Его находят и предлагают сделку: если он вернет украденный сверхсекретный бомбардировщик Х-77 обратно в американское воздушное пространство, то получит желаемую отставку. У Сандса теперь есть 24 часа, чтобы выполнить опасное задание на севере Афганистана и вернуть самолет в срок, пока американское правительство не отдало приказ направить свои войска для полного уничтожения х-77, включая и самого Сандса...



Страна: Великобритания, Румыния, США
Студия: Castel Film Romania, Clubdeal Ltd., Steamroller Productions
Продолжительность: 01:38:06
Перевод: Профессиональный двухголосый

Файл
Кодек: AVC
Качество: WEB-DL 1080p | AMZN
Видео: MPEG-4 AVC, 9595 Kбит/с, 1920x1080, 23.976 кадр/с
Аудио #1: Русский (АС3, 6 ch, 448 Кбит/с, 48.0 KHz)
Аудио #2: Английский (E-АС3, 6 ch, 640 Кбит/с, 48.0 KHz)
Субтитры: Английские

Источник: Flight.of.Fury.2007.1080p.AMZN.WEB-DL.DDP5.1.H.264-monkee
General
Unique ID : 224306833846819068891115955729169224831 (0xA8BFECBFEE39FF99ADAF8DA4CD59947F)
Complete name : Flight.of.Fury.2007.AMZN.WEB-DL.1080p.mkv
Format : Matroska
Format version : Version 4
File size : 7.32 GiB
Duration : 1 h 38 min
Overall bit rate mode : Variable
Overall bit rate : 10.7 Mb/s
Encoded date : UTC 2019-11-18 20:18:53
Writing application : mkvmerge v7.1.0 ('Good Love') 64bit built on Jul 27 2014 13:06:55
Writing library : libebml v1.3.0 + libmatroska v1.4.1

Video
ID : 1
Format : AVC
Format/Info : Advanced Video Codec
Format profile : High@L4
Format settings : CABAC / 4 Ref Frames
Format settings, CABAC : Yes
Format settings, Reference fra : 4 frames
Codec ID : V_MPEG4/ISO/AVC
Duration : 1 h 38 min
Bit rate mode : Variable
Bit rate : 9 595 kb/s
Maximum bit rate : 15.0 Mb/s
Width : 1 920 pixels
Height : 1 080 pixels
Display aspect ratio : 16:9
Frame rate mode : Constant
Frame rate : 23.976 (24000/1001) FPS
Color space : YUV
Chroma subsampling : 4:2:0
Bit depth : 8 bits
Scan type : Progressive
Bits/(Pixel*Frame) : 0.193
Stream size : 6.58 GiB (90%)
Language : English
Default : Yes
Forced : No
Color range : Limited
Color primaries : BT.709
Transfer characteristics : BT.709
Matrix coefficients : BT.709

Audio #1
ID : 2
Format : AC-3
Format/Info : Audio Coding 3
Commercial name : Dolby Digital
Codec ID : A_AC3
Duration : 1 h 38 min
Bit rate mode : Constant
Bit rate : 448 kb/s
Channel(s) : 6 channels
Channel layout : L R C LFE Ls Rs
Sampling rate : 48.0 kHz
Frame rate : 31.250 FPS (1536 SPF)
Compression mode : Lossy
Stream size : 314 MiB (4%)
Language : Russian
Service kind : Complete Main
Default : Yes
Forced : No

Audio #2
ID : 3
Format : E-AC-3
Format/Info : Enhanced AC-3
Commercial name : Dolby Digital Plus
Codec ID : A_EAC3
Duration : 1 h 38 min
Bit rate mode : Constant
Bit rate : 640 kb/s
Channel(s) : 6 channels
Channel layout : L R C LFE Ls Rs
Sampling rate : 48.0 kHz
Frame rate : 31.250 FPS (1536 SPF)
Compression mode : Lossy
Stream size : 449 MiB (6%)
Language : English
Service kind : Complete Main
Default : No
Forced : No

Text
ID : 4
Format : UTF-8
Codec ID : S_TEXT/UTF8
Codec ID/Info : UTF-8 Plain Text
Duration : 1 h 33 min
Bit rate : 43 b/s
Count of elements : 839
Stream size : 29.7 KiB (0%)
Language : English
Default : No
Forced : No
  • Торрент
Автор: Sonik Хэш: ---
Добавлен: 25 ноя 2019, 04:51 Приватный: Нет (DHT включён)
Статус: Проверен
Размер: 7.32 ГБ (7 862 485 952 байт)
Изменил: Sonik (25 ноя 2019, 04:52)
Скачали: 1 (Раздающих: 100%)
Причина:
---
Здоровье: 100%
Сидеров: 3 Личеров: 0
Скорость раздачи: 0 байт/сек Скорость скачивания: 0 байт/сек
Последний сидер: 1 день 5 часов 7 минут 40 секунд назад Последний личер: 5 дней 15 часов 9 минут 8 секунд назад
Для скачивания торрента необходимо зарегистрироваться или войти на трекер.

Вернуться в Зарубежное кино | Высокое качество [Ultra HD, HD DVD, BD-Rip и Blu-ray]


cron
Ресурс не предоставляет электронные версии произведений, а занимается лишь коллекционированием и каталогизацией ссылок, присылаемых и публикуемых на форуме нашими читателями. Если вы являетесь правообладателем какого-либо представленного материала и не желаете чтобы ссылка на него находилась в нашем каталоге, свяжитесь с нами и мы незамедлительно удалим её. Файлы для обмена на трекере предоставлены пользователями сайта, и администрация не несёт ответственности за их содержание. Просьба не заливать файлы, защищенные авторскими правами, а также файлы нелегального содержания!
cron