Простой план / A Simple Plan [триллер, драма, криминал, 1998] BDRip, Dvo | [GER Transfer]

Модераторы: Модераторы, Модераторы фильмов

Sonik
Модератор
Модератор

Раздал: 1.74 ТБ
Скачал: 1.21 ТБ
Ратио: 1.436
Сообщения: 299

Зарегистрирован: 13 сен 2017, 00:19
В кошельке: 4,506.00
Награды: 3
Путь к журналисту (1) Журналист (1) Богат как фараон (1)
Заслуженная репутация: 4
  • Постеры
Информация о фильме
Название: Простой план
Оригинальное название: A Simple Plan
Год выхода: 1998
Жанр: триллер, драма, криминал
Режиссер: Сэм Рэйми
В ролях: Билл Пэкстон, Бриджит Фонда, Билли Боб Торнтон, Брент Бриско, Джек Уолш, Челси Росс, Бекки Энн Бэйкер, Гэри Коул, Боб Дэвис, Питер Сивертсен

О фильме: Американская мечта в спортивной сумке… Братья Хэнк и Джэкоб и их приятель Лу находят 4 миллиона долларов в разбившемся самолете в лесах Миннесоты. Они догадываются, что у этих денег есть хозяин и, возможно, он уже ищет пропажу. И все же они решают оставить деньги себе. Что ж, самый трудный шаг был сделан. Но смогут ли они дойти до конца?!…



Страна: Франция, Великобритания, Германия, США, Япония
Студия: Paramount Pictures, BBC Television Centre, Savoy Pictures
Продолжительность: 02:01:02
Перевод: Профессиональный (двухголосый закадровый) R5 Videogram

Файл
Формат: Matroska
Качество: BDRip-AVC | [A Simple Plan Remux GER]
Видео: 1038x584 at 23.976 fps, x264, ~3500 kbps
Аудио: AC3, 6 ch, ~384 kbps - | Русский | -
Субтитры: Russian, English (субтитры взял с другого трансфера - первые пару минут не совпадают по времени)
Формат субтитров: softsub (SRT)
***Релиз от: -=DoMiNo=-

General
Unique ID : 223549043298846494643049895456051580749 (0xA82DFACA873F26645093BEA30CC84F4D)
Complete name : Простой план.(1998).BDRip-AVC.F.S.[-=DoMiNo=-].mkv
Format : Matroska
Format version : Version 4
File size : 3.28 GiB
Duration : 2 h 1 min
Overall bit rate : 3 884 kb/s
Movie name : Простой план / A Simple Plan (1998)
Encoded date : UTC 2019-06-22 05:37:20
Writing application : mkvmerge v34.0.0 ('Sight and Seen') 64-bit
Writing library : libebml v1.3.7 + libmatroska v1.5.0
Attachments : poster / poster

Video
ID : 1
Format : AVC
Format/Info : Advanced Video Codec
Format profile : High@L4.1
Format settings : CABAC / 12 Ref Frames
Format settings, CABAC : Yes
Format settings, Reference : 12 frames
Codec ID : V_MPEG4/ISO/AVC
Duration : 2 h 1 min
Bit rate : 3 500 kb/s
Width : 1 038 pixels
Height : 584 pixels
Display aspect ratio : 16:9
Original display aspect rat : 16:9
Frame rate mode : Constant
Frame rate : 23.976 (24000/1001) FPS
Color space : YUV
Chroma subsampling : 4:2:0
Bit depth : 8 bits
Scan type : Progressive
Bits/(Pixel*Frame) : 0.241
Stream size : 2.96 GiB (90%)
Title : RIP_BY_-=DoMiNo=-
Writing library : x264 core 157 r2969 d4099dd
Encoding settings : cabac=1 / ref=12 / deblock=1:-3:-3 / analyse=0x3:0x133 / me=umh / subme=11 / psy=1 / psy_rd=1.05:0.15 / mixed_ref=1 / me_range=48 / chroma_me=1 / trellis=2 / 8x8dct=1 / cqm=0 / deadzone=21,11 / fast_pskip=0 / chroma_qp_offset=-3 / threads=6 / lookahead_threads=1 / sliced_threads=0 / nr=0 / decimate=0 / interlaced=0 / bluray_compat=0 / constrained_intra=0 / bframes=11 / b_pyramid=2 / b_adapt=2 / b_bias=0 / direct=3 / weightb=1 / open_gop=0 / weightp=2 / keyint=240 / keyint_min=24 / scenecut=40 / intra_refresh=0 / rc=2pass / mbtree=0 / bitrate=3500 / ratetol=1.0 / qcomp=0.70 / qpmin=0 / qpmax=69 / qpstep=4 / cplxblur=20.0 / qblur=0.5 / ip_ratio=1.40 / pb_ratio=1.30 / aq=3:0.80
Default : Yes
Forced : No
Color range : Limited
Color primaries : BT.709
Transfer characteristics : BT.709
Matrix coefficients : BT.709

Audio
ID : 2
Format : AC-3
Format/Info : Audio Coding 3
Commercial name : Dolby Digital
Codec ID : A_AC3
Duration : 2 h 1 min
Bit rate mode : Constant
Bit rate : 384 kb/s
Channel(s) : 6 channels
Channel layout : L R C LFE Ls Rs
Sampling rate : 48.0 kHz
Frame rate : 31.250 FPS (1536 SPF)
Bit depth : 16 bits
Compression mode : Lossy
Stream size : 332 MiB (10%)
Title : DVO
Language : Russian
Service kind : Complete Main
Default : Yes
Forced : No

Text #1
ID : 3
Format : UTF-8
Codec ID : S_TEXT/UTF8
Codec ID/Info : UTF-8 Plain Text
Duration : 1 h 55 min
Bit rate : 95 b/s
Count of elements : 1367
Stream size : 80.8 KiB (0%)
Language : Russian
Default : No
Forced : No

Text #2
ID : 4
Format : UTF-8
Codec ID : S_TEXT/UTF8
Codec ID/Info : UTF-8 Plain Text
Duration : 1 h 53 min
Bit rate : 72 b/s
Count of elements : 1648
Stream size : 60.4 KiB (0%)
Language : English
Default : No
Forced : No

Menu
00:00:00.000 : en:00:00:00.000
00:08:54.200 : en:00:08:54.200
00:18:24.770 : en:00:18:24.770
00:27:32.192 : en:00:27:32.192
00:38:44.322 : en:00:38:44.322
00:44:35.672 : en:00:44:35.672
00:49:34.429 : en:00:49:34.429
00:54:03.031 : en:00:54:03.031
01:00:50.438 : en:01:00:50.438
01:19:39.941 : en:01:19:39.941
01:27:59.816 : en:01:27:59.816
01:35:38.274 : en:01:35:38.274
01:40:21.390 : en:01:40:21.390
01:47:27.566 : en:01:47:27.566
01:52:49.762 : en:01:52:49.762
01:55:34.927 : en:01:55:34.927
  • Торрент
Автор: Sonik Хэш: ---
Добавлен: 22 июн 2019, 21:50 Приватный: Нет (DHT включён)
Статус: Проверен
Размер: 3.28 ГБ (3 525 849 381 байт)
Изменил: Sonik (22 июн 2019, 21:50)
Скачали: 20 (Раздающих: 0%)
Причина:
---
Здоровье: 17%
Сидеров: 3 Личеров: 17
Скорость раздачи: 0 байт/сек Скорость скачивания: 0 байт/сек
Последний сидер: 12 часов 22 минуты 12 секунд назад Последний личер: 12 часов 22 минуты 12 секунд назад
Для скачивания торрента необходимо зарегистрироваться или войти на трекер.

Вернуться в Зарубежное кино | Высокое качество [Ultra HD, HD DVD, BD-Rip и Blu-ray]


Ресурс не предоставляет электронные версии произведений, а занимается лишь коллекционированием и каталогизацией ссылок, присылаемых и публикуемых на форуме нашими читателями. Если вы являетесь правообладателем какого-либо представленного материала и не желаете чтобы ссылка на него находилась в нашем каталоге, свяжитесь с нами и мы незамедлительно удалим её. Файлы для обмена на трекере предоставлены пользователями сайта, и администрация не несёт ответственности за их содержание. Просьба не заливать файлы, защищенные авторскими правами, а также файлы нелегального содержания!
cron