Мектуб, моя любовь / Mektoub, My Love: Canto Uno [Мелодрама, комедия, 2017] BDRip 1080p, Mvo

Модераторы: Модераторы, Модераторы фильмов

Sonik
Модератор
Модератор

Раздал: 1.52 ТБ
Скачал: 1.08 ТБ
Ратио: 1.407
Сообщения: 298

Зарегистрирован: 13 сен 2017, 00:19
В кошельке: 4,491.00
Награды: 3
Путь к журналисту (1) Журналист (1) Богат как фараон (1)
Заслуженная репутация: 4
  • Постеры
Информация о фильме
Название: Мектуб, моя любовь
Оригинальное название: Mektoub, My Love: Canto Uno
Год выхода: 2017
Жанр: Мелодрама, комедия
Режиссер: Абделатиф Кешиш
В ролях: Шаин Бумедин, Офели Бо, Салим Кешьюш, Лу Люттио, Алексия Шандар, Афсиа Эрзи, Делинда Кешиш, Камел Саади, Хатика Карауи, Мелинда Эласфур

О фильме:
Жаркое лето на юге Франции. Молодой сценарист Амин возвращается на время летних каникул домой, на побережье Лионского залива. Кузены, кузины, друзья, студентки из Ниццы - все здесь утоляют жажду, танцуют, купаются в море, сплетничают, ревнуют и занимаются любовью. Офелия любит Тони, но обручена с Клеманом. Шарлотта тоже любит Тони, Тони любит женщин, как и Селин, но Селин больше любит отвязные вечеринки. Вслед за этими безрассудными и разгоряченными телами Амин пускается на поиски любви, вдохновения, а если повезет - и судьбы.



Страна: Франция, Италия
Студия: Quat'sous Films, Pathé, France 2 Cinéma
Продолжительность: 02:53:37
Перевод: Профессиональный многоголосый | Мельница

Файл
Кодек: x.264
Качество: BDRip 1080p | Mektoub.My.Love.Canto.Uno.2017.FRENCH.1080p.BluRay.DTS.x264-DuSS
Видео: MPEG-4 AVC, 12.0 Mбит/с, 1920x808, 25.000 кадр/с
Звук: ► Без Рекламы!
Аудио #1: Русский (АС3, 6ch, 448 Кбит/с, 48.0 KHz) Профессиональный (многоголосый, закадровый) Мельница
Аудио #2: Французский (DTS, 6ch, 1509 Кбит/с, 48.0 KHz)
Субтитры: французские (forced)
Трейлер
Источник: Mektoub.My.Love.Canto.Uno.2017.FRENCH.1080p.BluRay.DTS.x264-DuSS
General
Unique ID : 198353232623422014373319300181474710649 (0x9539716A40D36A17BA4125CBD4F89479)
Complete name : Mektoub.My.Love.Canto.Uno.2017.BDRip.1080p.mkv
Format : Matroska
Format version : Version 4
File size : 16.9 GiB
Duration : 2 h 53 min
Overall bit rate : 14.0 Mb/s
Encoded date : UTC 2019-05-25 09:52:16
Writing application : mkvmerge v7.1.0 ('Good Love') 64bit built on Jul 27 2014 13:06:55
Writing library : libebml v1.3.0 + libmatroska v1.4.1

Video
ID : 1
Format : AVC
Format/Info : Advanced Video Codec
Format profile : High@L4.1
Format settings : CABAC / 5 Ref Frames
Format settings, CABAC : Yes
Format settings, ReFrames : 5 frames
Codec ID : V_MPEG4/ISO/AVC
Duration : 2 h 53 min
Bit rate : 12.0 Mb/s
Width : 1 920 pixels
Height : 808 pixels
Display aspect ratio : 2.40:1
Frame rate mode : Constant
Frame rate : 25.000 FPS
Color space : YUV
Chroma subsampling : 4:2:0
Bit depth : 8 bits
Scan type : Progressive
Bits/(Pixel*Frame) : 0.310
Stream size : 14.6 GiB (86%)
Writing library : x264 core 155 r2901 7d0ff22
Encoding settings : cabac=1 / ref=5 / deblock=1:-3:-3 / analyse=0x3:0x113 / me=umh / subme=8 / psy=1 / psy_rd=1.00:0.00 / mixed_ref=1 / me_range=16 / chroma_me=1 / trellis=2 / 8x8dct=1 / cqm=0 / deadzone=21,11 / fast_pskip=0 / chroma_qp_offset=-2 / threads=12 / lookahead_threads=2 / sliced_threads=0 / nr=0 / decimate=1 / interlaced=0 / bluray_compat=0 / constrained_intra=0 / bframes=3 / b_pyramid=2 / b_adapt=1 / b_bias=0 / direct=1 / weightb=1 / open_gop=0 / weightp=2 / keyint=250 / keyint_min=25 / scenecut=40 / intra_refresh=0 / rc_lookahead=40 / rc=2pass / mbtree=1 / bitrate=12007 / ratetol=1.0 / qcomp=0.60 / qpmin=0 / qpmax=69 / qpstep=4 / cplxblur=20.0 / qblur=0.5 / ip_ratio=1.40 / aq=1:1.00
Language : English
Default : Yes
Forced : No

Audio #1
ID : 2
Format : AC-3
Format/Info : Audio Coding 3
Commercial name : Dolby Digital
Codec ID : A_AC3
Duration : 2 h 53 min
Bit rate mode : Constant
Bit rate : 448 kb/s
Channel(s) : 6 channels
Channel layout : L R C LFE Ls Rs
Sampling rate : 48.0 kHz
Frame rate : 31.250 FPS (1536 SPF)
Bit depth : 16 bits
Compression mode : Lossy
Stream size : 556 MiB (3%)
Title : MVO | Мельница
Language : Russian
Service kind : Complete Main
Default : Yes
Forced : No

Audio #2
ID : 3
Format : DTS
Format/Info : Digital Theater Systems
Codec ID : A_DTS
Duration : 2 h 53 min
Bit rate mode : Constant
Bit rate : 1 509 kb/s
Channel(s) : 6 channels
Channel layout : C L R Ls Rs LFE
Sampling rate : 48.0 kHz
Frame rate : 93.750 FPS (512 SPF)
Bit depth : 24 bits
Compression mode : Lossy
Stream size : 1.83 GiB (11%)
Language : French
Default : No
Forced : No

Text
ID : 4
Format : UTF-8
Codec ID : S_TEXT/UTF8
Codec ID/Info : UTF-8 Plain Text
Duration : 1 h 56 min
Bit rate : 0 b/s
Count of elements : 19
Stream size : 710 Bytes (0%)
Title : forced
Language : French
Default : No
Forced : No

Menu
00:00:00.000 : en:00:00:00.000
00:18:05.320 : en:00:18:05.320
00:25:56.800 : en:00:25:56.800
00:46:26.800 : en:00:46:26.800
01:04:32.400 : en:01:04:32.400
01:15:23.200 : en:01:15:23.200
01:24:08.600 : en:01:24:08.600
01:42:31.360 : en:01:42:31.360
02:00:55.480 : en:02:00:55.480
02:20:33.000 : en:02:20:33.000
02:40:43.000 : en:02:40:43.000
02:47:55.200 : en:02:47:55.200
  • Торрент
Автор: Sonik Хэш: ---
Добавлен: 11 июн 2019, 19:35 Приватный: Нет (DHT включён)
Статус: Проверен
Размер: 16.94 ГБ (18 186 032 703 байт)
Изменил: Sonik (11 июн 2019, 19:35)
Скачали: 2 (Раздающих: 50%)
Причина:
---
Здоровье: 100%
Сидеров: 1 Личеров: 0
Скорость раздачи: 4.21 КБ/сек Скорость скачивания: 0 байт/сек
Последний сидер: 16 минут 40 секунд назад Последний личер: 11 дней 6 часов 52 минуты 44 секунды назад
Для скачивания торрента необходимо зарегистрироваться или войти на трекер.

Вернуться в Зарубежное кино | Высокое качество [Ultra HD, HD DVD, BD-Rip и Blu-ray]


cron
Ресурс не предоставляет электронные версии произведений, а занимается лишь коллекционированием и каталогизацией ссылок, присылаемых и публикуемых на форуме нашими читателями. Если вы являетесь правообладателем какого-либо представленного материала и не желаете чтобы ссылка на него находилась в нашем каталоге, свяжитесь с нами и мы незамедлительно удалим её. Файлы для обмена на трекере предоставлены пользователями сайта, и администрация не несёт ответственности за их содержание. Просьба не заливать файлы, защищенные авторскими правами, а также файлы нелегального содержания!
cron