SuperЗять / Le gendre de ma vie (2018) WEB-DL 1080p

Модераторы: Модераторы, Модераторы фильмов

Sonik
Модератор
Модератор

Раздал: 1.47 ТБ
Скачал: 1.08 ТБ
Ратио: 1.370
Сообщения: 285

Зарегистрирован: 13 сен 2017, 00:19
В кошельке: 4,296.00
Награды: 3
Путь к журналисту (1) Журналист (1) Богат как фараон (1)
Заслуженная репутация: 4
  • Постеры
Информация о фильме
Название: SuperЗять
Оригинальное название: Le gendre de ma vie
Год выхода: 2018
Жанр: Комедия
Режиссер: Франсуа Дезанья
В ролях: Кад Мерад, Полин Этьен, Жюли Гайе, Франсуа Деблок, Забу Брайтман, Гийом Лаббе, Хлоя Жуанне, Луиз Колдефи, Жереми Лопез, Беранжер Криеф

О фильме: Если папа - псих, который в каждом твоём случайном знакомом видит своего будущего зятя - это большая проблема! Твоя старшая сестра доведена папиными выходками до отчаяния и решает скрыть свою свадьбу. А младшая уже вовсю борется за права женщин. И вы решаете его проучить...



Страна: Франция
Студия: Nac Films, Pathé, Liaison Films, C8 Films, Canal+ [fr], TF1 Films Production
Продолжительность: 01:40:33
Перевод: Дублированный | DUB | Line

Файл
Кодек: AVC
Качество: WEB-DL 1080p
Видео: MPEG-4 AVC, 4573 Kбит/с, 1912x800, 24.000 кадр/с
Звук: Релиз без Рекламы!
Аудио #1: Русский (АС3, 2ch, 192 Кбит/с, 48.0 KHz) Профессиональный (дублированный) Маурис Филм
Аудио #2: Французский (АС3, 6ch, 384 Кбит/с, 48.0 KHz)
Субтитры: нет
Трейлер

Источник: Le.Gendre.De.Ma.Vie.2018.FRENCH.1080p.WEB.H264-PREUMS
General
Unique ID : 231761481416389221282750326374772926187 (0xAE5BA340686DF9E098D2ECEF433A66EB)
Complete name : Le.Gendre.De.Ma.Vie.2018.WEB-DL.Dub(Line).1080p.mkv
Format : Matroska
Format version : Version 4
File size : 3.62 GiB
Duration : 1 h 40 min
Overall bit rate : 5 150 kb/s
Encoded date : UTC 2019-05-30 22:58:03
Writing application : mkvmerge v7.1.0 ('Good Love') 64bit built on Jul 27 2014 13:06:55
Writing library : libebml v1.3.0 + libmatroska v1.4.1

Video
ID : 1
Format : AVC
Format/Info : Advanced Video Codec
Format profile : High@L4
Format settings : CABAC / 5 Ref Frames
Format settings, CABAC : Yes
Format settings, ReFrames : 5 frames
Codec ID : V_MPEG4/ISO/AVC
Duration : 1 h 40 min
Bit rate : 4 573 kb/s
Width : 1 912 pixels
Height : 800 pixels
Display aspect ratio : 2.40:1
Frame rate mode : Constant
Frame rate : 24.000 FPS
Color space : YUV
Chroma subsampling : 4:2:0
Bit depth : 8 bits
Scan type : Progressive
Bits/(Pixel*Frame) : 0.125
Stream size : 3.21 GiB (89%)
Language : French
Default : Yes
Forced : No
Color range : Limited
Color primaries : BT.709
Transfer characteristics : BT.709
Matrix coefficients : BT.709

Audio #1
ID : 2
Format : AC-3
Format/Info : Audio Coding 3
Commercial name : Dolby Digital
Codec ID : A_AC3
Duration : 1 h 40 min
Bit rate mode : Constant
Bit rate : 192 kb/s
Channel(s) : 2 channels
Channel layout : L R
Sampling rate : 48.0 kHz
Frame rate : 31.250 FPS (1536 SPF)
Bit depth : 16 bits
Compression mode : Lossy
Stream size : 138 MiB (4%)
Title : DUB | Line
Language : Russian
Service kind : Complete Main
Default : Yes
Forced : No

Audio #2
ID : 3
Format : AC-3
Format/Info : Audio Coding 3
Commercial name : Dolby Digital
Codec ID : A_AC3
Duration : 1 h 40 min
Bit rate mode : Constant
Bit rate : 384 kb/s
Channel(s) : 6 channels
Channel layout : L R C LFE Ls Rs
Sampling rate : 48.0 kHz
Frame rate : 31.250 FPS (1536 SPF)
Bit depth : 16 bits
Compression mode : Lossy
Stream size : 276 MiB (7%)
Title : French 5.1
Language : French
Service kind : Complete Main
Default : No
Forced : No

Menu
00:00:00.000 : en:Chapitre 01
00:10:00.000 : en:Chapitre 02
00:20:00.000 : en:Chapitre 03
00:30:00.000 : en:Chapitre 04
00:40:00.000 : en:Chapitre 05
00:50:00.000 : en:Chapitre 06
01:00:00.000 : en:Chapitre 07
01:10:00.000 : en:Chapitre 08
01:20:00.000 : en:Chapitre 09
01:30:00.000 : en:Chapitre 10
  • Торрент
Автор: Sonik Хэш: ---
Добавлен: 06 июн 2019, 03:19 Приватный: Нет (DHT включён)
Статус: Проверен
Размер: 3.62 ГБ (3 884 318 480 байт)
Изменил: Sonik (06 июн 2019, 03:19)
Скачали: 2 (Раздающих: 100%)
Причина:
---
Здоровье: 100%
Сидеров: 4 Личеров: 0
Скорость раздачи: 19 байт/сек Скорость скачивания: 0 байт/сек
Последний сидер: 11 минут 23 секунды назад Последний личер: 6 дней 20 часов 12 минут 43 секунды назад
Для скачивания торрента необходимо зарегистрироваться или войти на трекер.

Вернуться в Зарубежное кино | Высокое качество [Ultra HD, HD DVD, BD-Rip и Blu-ray]


cron
Ресурс не предоставляет электронные версии произведений, а занимается лишь коллекционированием и каталогизацией ссылок, присылаемых и публикуемых на форуме нашими читателями. Если вы являетесь правообладателем какого-либо представленного материала и не желаете чтобы ссылка на него находилась в нашем каталоге, свяжитесь с нами и мы незамедлительно удалим её. Файлы для обмена на трекере предоставлены пользователями сайта, и администрация не несёт ответственности за их содержание. Просьба не заливать файлы, защищенные авторскими правами, а также файлы нелегального содержания!
cron