Капитан Марвел / Captain Marvel [Фантастика, боевик, приключения, 2019] BDRip 1080p, Dub

Модераторы: Модераторы, Модераторы фильмов

Sonik
Модератор
Модератор

Раздал: 1.52 ТБ
Скачал: 1.08 ТБ
Ратио: 1.407
Сообщения: 298

Зарегистрирован: 13 сен 2017, 00:19
В кошельке: 4,491.00
Награды: 3
Путь к журналисту (1) Журналист (1) Богат как фараон (1)
Заслуженная репутация: 4
  • Постеры
Информация о фильме
Название: Капитан Марвел
Оригинальное название: Captain Marvel
Год выхода: 2019
Жанр: Фантастика, боевик, приключения
Режиссер: Анна Боден, Райан Флек
В ролях: Бри Ларсон, Сэмюэл Л. Джексон, Бен Мендельсон, Джуд Лоу, Аннетт Бенинг, Лашана Линч, Кларк Грегг, Рюн Темт, Джемма Чан, Альхенис Перес Сото, Джимон Хонсу, Ли Пейс, Чуку Моду, Мэттью Мехер, Акира Акбар, Марк Догерти, Стивен А. Чанг

О фильме: После столкновения с враждующими инопланетными расами пилот военно-воздушных сил Кэрол Дэнверс обретает суперсилу и становится неуязвимой. Героине предстоит совладать со своими новыми способностями, чтобы противостоять могущественному врагу.



Страна: США
Студия: Walt Disney Pictures, Marvel Studios
Продолжительность: 02:03:42
Перевод: Дублированный

Файл
Кодек: x.264
Качество: BDRip 1080p | Captain.Marvel.2019.1080p.BluRay.x264-SPARKS
Видео: MPEG-4 AVC, 8611 Kбит/с, 1920x808, 23.976 кадр/с
Звук: Релиз без Рекламы!
Аудио #1: Русский (АС3, 2ch, 192 Кбит/с, 48.0 KHz) Профессиональный (полное дублирование)
Аудио #2: Английский (DTS, 6ch, 1509 Кбит/с, 48.0 KHz)
Субтитры: Английские
Трейлер

Источник: Captain.Marvel.2019.1080p.BluRay.x264-SPARKS
General
Unique ID : 170851365655095098527172476172352162665 (0x8088C6AF80B6E0C59318059EA0610B69)
Complete name : Captain.Marvel.2019.BDRip.1080p.mkv
Format : Matroska
Format version : Version 4
File size : 8.91 GiB
Duration : 2 h 4 min
Overall bit rate : 10.3 Mb/s
Encoded date : UTC 2019-05-29 09:35:40
Writing application : mkvmerge v7.1.0 ('Good Love') 64bit built on Jul 27 2014 13:06:55
Writing library : libebml v1.3.0 + libmatroska v1.4.1

Video
ID : 1
Format : AVC
Format/Info : Advanced Video Codec
Format profile : High@L4.1
Format settings : CABAC / 5 Ref Frames
Format settings, CABAC : Yes
Format settings, ReFrames : 5 frames
Format settings, GOP : M=1, N=3
Codec ID : V_MPEG4/ISO/AVC
Duration : 2 h 3 min
Bit rate : 8 611 kb/s
Width : 1 920 pixels
Height : 808 pixels
Display aspect ratio : 2.40:1
Frame rate mode : Constant
Frame rate : 23.976 (24000/1001) FPS
Color space : YUV
Chroma subsampling : 4:2:0
Bit depth : 8 bits
Scan type : Progressive
Bits/(Pixel*Frame) : 0.232
Stream size : 7.44 GiB (83%)
Writing library : x264 core 157 r2970 5493be8
Encoding settings : cabac=1 / ref=5 / deblock=1:-3:-3 / analyse=0x3:0x113 / me=umh / subme=8 / psy=1 / psy_rd=1.00:0.00 / mixed_ref=1 / me_range=16 / chroma_me=1 / trellis=1 / 8x8dct=1 / cqm=0 / deadzone=21,11 / fast_pskip=1 / chroma_qp_offset=-2 / threads=25 / lookahead_threads=4 / sliced_threads=0 / nr=0 / decimate=1 / interlaced=0 / bluray_compat=0 / constrained_intra=0 / bframes=3 / b_pyramid=2 / b_adapt=1 / b_bias=0 / direct=3 / weightb=1 / open_gop=0 / weightp=2 / keyint=250 / keyint_min=23 / scenecut=40 / intra_refresh=0 / rc_lookahead=50 / rc=2pass / mbtree=1 / bitrate=8611 / ratetol=1.0 / qcomp=0.60 / qpmin=0 / qpmax=69 / qpstep=4 / cplxblur=20.0 / qblur=0.5 / ip_ratio=1.40 / aq=1:1.00
Language : English
Default : Yes
Forced : No

Audio #1
ID : 2
Format : AC-3
Format/Info : Audio Coding 3
Commercial name : Dolby Digital
Codec ID : A_AC3
Duration : 2 h 4 min
Bit rate mode : Constant
Bit rate : 192 kb/s
Channel(s) : 2 channels
Channel layout : L R
Sampling rate : 48.0 kHz
Frame rate : 31.250 FPS (1536 SPF)
Bit depth : 16 bits
Compression mode : Lossy
Stream size : 170 MiB (2%)
Title : DUB
Language : Russian
Service kind : Complete Main
Default : Yes
Forced : No

Audio #2
ID : 3
Format : DTS
Format/Info : Digital Theater Systems
Codec ID : A_DTS
Duration : 2 h 3 min
Bit rate mode : Constant
Bit rate : 1 509 kb/s
Channel(s) : 6 channels
Channel layout : C L R Ls Rs LFE
Sampling rate : 48.0 kHz
Frame rate : 93.750 FPS (512 SPF)
Bit depth : 24 bits
Compression mode : Lossy
Stream size : 1.30 GiB (15%)
Language : English
Default : No
Forced : No

Text #1
ID : 4
Format : UTF-8
Codec ID : S_TEXT/UTF8
Codec ID/Info : UTF-8 Plain Text
Duration : 1 h 53 min
Bit rate : 47 b/s
Count of elements : 1424
Stream size : 39.8 KiB (0%)
Language : English
Default : No
Forced : No

Text #2
ID : 5
Format : UTF-8
Codec ID : S_TEXT/UTF8
Codec ID/Info : UTF-8 Plain Text
Duration : 2 h 2 min
Bit rate : 50 b/s
Count of elements : 1668
Stream size : 45.1 KiB (0%)
Language : English
Default : No
Forced : No

Menu
00:00:00.000 : en:00:00:00.000
00:06:52.120 : en:00:06:52.120
00:14:07.889 : en:00:14:07.889
00:23:18.272 : en:00:23:18.272
00:29:38.026 : en:00:29:38.026
00:35:07.772 : en:00:35:07.772
00:44:08.437 : en:00:44:08.437
00:50:43.499 : en:00:50:43.499
00:56:18.625 : en:00:56:18.625
01:03:02.821 : en:01:03:02.821
01:11:17.398 : en:01:11:17.398
01:17:49.164 : en:01:17:49.164
01:27:03.051 : en:01:27:03.051
01:33:22.430 : en:01:33:22.430
01:40:51.796 : en:01:40:51.796
01:46:25.087 : en:01:46:25.087
01:52:49.888 : en:01:52:49.888
  • Торрент
Автор: Sonik Хэш: ---
Добавлен: 30 май 2019, 01:46 Приватный: Нет (DHT включён)
Статус: Проверен
Размер: 8.91 ГБ (9 569 095 562 байт)
Изменил: Sonik (30 май 2019, 01:46)
Скачали: 26693 (Раздающих: 25%)
Причина:
---
Здоровье: 100%
Сидеров: 4172 Личеров: 1022
Скорость раздачи: 0 байт/сек Скорость скачивания: 0 байт/сек
Последний сидер: 2 часа 59 секунд назад Последний личер: 6 часов 27 минут 38 секунд назад
Для скачивания торрента необходимо зарегистрироваться или войти на трекер.

Вернуться в Зарубежное кино | Высокое качество [Ultra HD, HD DVD, BD-Rip и Blu-ray]


Ресурс не предоставляет электронные версии произведений, а занимается лишь коллекционированием и каталогизацией ссылок, присылаемых и публикуемых на форуме нашими читателями. Если вы являетесь правообладателем какого-либо представленного материала и не желаете чтобы ссылка на него находилась в нашем каталоге, свяжитесь с нами и мы незамедлительно удалим её. Файлы для обмена на трекере предоставлены пользователями сайта, и администрация не несёт ответственности за их содержание. Просьба не заливать файлы, защищенные авторскими правами, а также файлы нелегального содержания!
cron