Никогда не сдавайся 3 / Never Back Down: No Surrender (2016) WEB-DL 1080p от ExKinoRay | iTunes

Модераторы: Модераторы, Модераторы фильмов

PREDATOR-DJ Аватара пользователя
Администратор
Администратор

Раздал: 37.25 ТБ
Скачал: 3.89 ТБ
Ратио: 9.581
Сообщения: 1871

Зарегистрирован: 15 авг 2016, 12:12
В кошельке: 7,792.00
Банк: 77,768.50
Откуда: Зазеркалье
Награды: 8
Путь к журналисту (1) Админ (1) За заслуги перед форумом (1) Спасибо тебе! (1)
Админcтво в Battlefield (1) В обмен на рекламный банер (1) Голосовой чат Mumble (1) Раздал 1 Tb (1)
Заслуженная репутация: 20
НовичокНовичокНовичокНовичокНовичок

  • Постеры
Название: Никогда не сдавайся 3
Оригинальное название: Never Back Down: No Surrender
Год выхода: 2016
Жанр: боевик
Режиссер: Майкл Джей Уайт
В ролях: Эйн О’Брайэн, Стивен Квадрос, Эсай Моралес, Джош Барнетт, Грег Мэтт Гарсия, Эйлид МакКуин, Натан Джонс, Дэмиэн Мевис, Майкл Джей Уайт, Крейтон Марк Джонсон, Йанин Висмитананда, Джиллиан Уайт, Аарон Брамфилд, Дэн Ренальдс, Рон Смуренбург, Брахим Ачаббаке

О фильме:
Продолжение бойцовской франшизы о состязаниях по смешанным единоборствам и сопутствующих им закулисных страстях. Экс-звезда Кейс Уокер возвращается на ринг за очередной победой, но старой школе в его лице предстоит потягаться с новой школой.


Страна: США
Студия: Stage 6 Films
Продолжительность: 01:41:44
Перевод: Прфессиональный многоголосый (закадровый) | iTunes

Кодек: MPEG-4
Качество: WEB-DL 1080p
Видео: 1916x1076, 5015 Kbit/s, 23/976 fps
Звук:
Аудио #01: 48 kHz, AC3, 5.1, 384 Kbps | Прфессиональный многоголосый (закадровый), iTunes |AC3
Аудио #02: 48 kHz, AC3, 5.1, 384 kbps | Оригинал |AC3
Субтитры: Русские, английские




General
Unique ID : 217958738842200668559257366880769605138 (0xA3F9538061D8EF5C849AFFAD4614FE12)
Complete name : F:VideoNever.Back.Down.No.Surrender....2016.WEB-DL.1080p.ExKinoRay.mkv
Format : Matroska
Format version : Version 4 / Version 2
File size : 4.10 GiB
Duration : 1h 41mn
Overall bit rate : 5 786 Kbps
Movie name : Never.Back.Down.No.Surrender.2016.WEB-DL.1080p.ExKinoRay
Encoded date : UTC 2016-06-06 22:26:40
Writing application : mkvmerge v8.3.0 ('Over the Horizon') 64bit
Writing library : libebml v1.3.1 + libmatroska v1.4.2

Video
ID : 1
Format : AVC
Format/Info : Advanced Video Codec
Format profile : High@L4
Format settings, CABAC : Yes
Format settings, ReFrames : 4 frames
Codec ID : V_MPEG4/ISO/AVC
Duration : 1h 41mn
Bit rate : 5 015 Kbps
Width : 1 916 pixels
Height : 1 076 pixels
Display aspect ratio : 16:9
Frame rate mode : Constant
Frame rate : 23.976 (23976/1000) fps
Color space : YUV
Chroma subsampling : 4:2:0
Bit depth : 8 bits
Scan type : Progressive
Bits/(Pixel*Frame) : 0.101
Stream size : 3.55 GiB (87%)
Language : English
Default : Yes
Forced : No
Color range : Limited
Color primaries : BT.709
Transfer characteristics : BT.709
Matrix coefficients : BT.709

Audio #1
ID : 2
Format : AC-3
Format/Info : Audio Coding 3
Mode extension : CM (complete main)
Format settings, Endianness : Big
Codec ID : A_AC3
Duration : 1h 41mn
Bit rate mode : Constant
Bit rate : 384 Kbps
Channel(s) : 6 channels
Channel positions : Front: L C R, Side: L R, LFE
Sampling rate : 48.0 KHz
Frame rate : 31.250 fps (1536 spf)
Compression mode : Lossy
Stream size : 278 MiB (7%)
Title : DUB [iTunes]
Language : Russian
Default : Yes
Forced : No

Audio #2
ID : 3
Format : AC-3
Format/Info : Audio Coding 3
Mode extension : CM (complete main)
Format settings, Endianness : Big
Codec ID : A_AC3
Duration : 1h 41mn
Bit rate mode : Constant
Bit rate : 384 Kbps
Channel(s) : 6 channels
Channel positions : Front: L C R, Side: L R, LFE
Sampling rate : 48.0 KHz
Frame rate : 31.250 fps (1536 spf)
Compression mode : Lossy
Stream size : 278 MiB (7%)
Language : English
Default : No
Forced : No

Text #1
ID : 4
Format : UTF-8
Codec ID : S_TEXT/UTF8
Codec ID/Info : UTF-8 Plain Text
Duration : 1h 36mn
Bit rate : 100 bps
Count of elements : 1435
Stream size : 71.1 KiB (0%)
Language : Russian
Default : No
Forced : No

Text #2
ID : 5
Format : UTF-8
Codec ID : S_TEXT/UTF8
Codec ID/Info : UTF-8 Plain Text
Duration : 1h 36mn
Bit rate : 70 bps
Count of elements : 1512
Stream size : 50.2 KiB (0%)
Language : English
Default : No
Forced : No

Text #3
ID : 6
Format : UTF-8
Codec ID : S_TEXT/UTF8
Codec ID/Info : UTF-8 Plain Text
Duration : 1h 36mn
Bit rate : 70 bps
Count of elements : 1512
Stream size : 50.2 KiB (0%)
Title : SDH
Language : English
Default : No
Forced : No

Menu
00:00:00.000 : en:1
00:05:48.807 : en:2
00:12:38.758 : en:3
00:18:37.032 : en:4
00:24:47.235 : en:5
00:31:19.585 : en:6
00:38:53.205 : en:7
00:45:19.966 : en:8
00:52:07.289 : en:9
00:59:06.625 : en:10
01:07:06.438 : en:11
01:12:34.641 : en:12
01:18:51.643 : en:13
01:24:17.593 : en:14
01:31:15.761 : en:15
01:36:48.051 : en:16

Мы в соц сетях:
Посмотреть товар в профиле пользователя

Нажмите на изображение, чтобы увидеть в полный размер  
1 шт.
Нажмите на изображение, чтобы увидеть в полный размер  
1 шт.
Нажмите на изображение, чтобы увидеть в полный размер  
1 шт.
Нажмите на изображение, чтобы увидеть в полный размер  
1 шт.
  • Торрент
Автор: PREDATOR-DJ Хэш: ---
Добавлен: 14 май 2019, 23:40 Приватный: Нет (DHT включён)
Статус: Проверен
Размер: 4.1 ГБ (4 399 384 710 байт)
Изменил:
---
Скачали: 12 (Раздающих: 50%)
Причина:
---
Здоровье: 100%
Сидеров: 6 Личеров: 0
Скорость раздачи: 0 байт/сек Скорость скачивания: 0 байт/сек
Последний сидер: 2 минуты 31 секунду назад Последний личер: 19 дней 17 часов 41 минуту 16 секунд назад
Для скачивания торрента необходимо зарегистрироваться или войти на трекер.

Вернуться в Зарубежное кино | Высокое качество [Ultra HD, HD DVD, BD-Rip и Blu-ray]


cron
Ресурс не предоставляет электронные версии произведений, а занимается лишь коллекционированием и каталогизацией ссылок, присылаемых и публикуемых на форуме нашими читателями. Если вы являетесь правообладателем какого-либо представленного материала и не желаете чтобы ссылка на него находилась в нашем каталоге, свяжитесь с нами и мы незамедлительно удалим её. Файлы для обмена на трекере предоставлены пользователями сайта, и администрация не несёт ответственности за их содержание. Просьба не заливать файлы, защищенные авторскими правами, а также файлы нелегального содержания!
cron