1+1: Голливудская история / The Upside (2018) BDRip 1080p от селезень | iTunes

Модераторы: Модераторы, Модераторы фильмов

PREDATOR-DJ Аватара пользователя
Администратор
Администратор

Раздал: 35.97 ТБ
Скачал: 3.83 ТБ
Ратио: 9.390
Сообщения: 1750

Зарегистрирован: 15 авг 2016, 12:12
В кошельке: 6,561.00
Банк: 64,280.50
Откуда: Зазеркалье
Награды: 8
Путь к журналисту (1) Админ (1) За заслуги перед форумом (1) Спасибо тебе! (1)
Админcтво в Battlefield (1) В обмен на рекламный банер (1) Голосовой чат Mumble (1) Раздал 1 Tb (1)
Заслуженная репутация: 20
НовичокНовичокНовичокНовичокНовичок

  • Постеры
Название: 1+1: Голливудская история
Оригинальное название: The Upside
Год выхода: 2018
Жанр: Драма, комедия
Режиссер: Нил Бёргер
В ролях: Брайан Крэнстон, Кевин Харт, Николь Кидман, Эйджа Наоми Кинг, Джахи Диалло Уинстон, Женевьева Энджелсон, Голшифте Фарахани, Тейт Донован, Джулианна Маргулис, Сюзанн Савой, Майкл Куинлэн, Рэйчел Кристофер, Диего Агирр, Фернандо Матео мл., Кимберли С. Фербенкс, Рэйчел Алана Хэндлер, Рики Гарсиа, Дж.Дж. Филлипс, Амара Каран



О фильме: Пентхаус в Нью Йорке, целый гараж коллекционных автомобилей и миллиарды скучающих президентов на банковском счету. Если есть тот, кто готов рискнуть состоянием ради минуты подлинного счастья, найдется и тот, кто ему в этом поможет.

Страна: США
Студия: Lantern Entertainment (II), The Weinstein Company
Продолжительность: 02:05:50
Перевод: Дублированный | iTunes

Качество: BDRip 1080p
Видео: MPEG-4 AVC, 1920x1036, 10.4 Mbit/s, 23.976 fps
Звук:
Аудио #01: 48 kHz, AC3, 5.1, 384 Kbps | iTunes | RUS |
Аудио #02: 48 kHz, AC3, 5.1, 640 Kbps | Оригинал | ENG |
Субтитры: Русские (Full), английские



General
Unique ID : 330627863906317606516720499193369495273 (0xF8BC9C4032E6DE04028DFD4E830E86E9)
Complete name : D:Video111The.Upside.2019.BDRip.1080p.seleZen.mkv
Format : Matroska
Format version : Version 4
File size : 10.0 GiB
Duration : 2 h 5 min
Overall bit rate : 11.4 Mb/s
Movie name : The Upside 2019 from селезень
Encoded date : UTC 2019-05-04 13:02:41
Writing application : mkvmerge v32.0.0 ('Astral Progressions') 64-bit
Writing library : libebml v1.3.7 + libmatroska v1.5.0

Video
ID : 1
Format : AVC
Format/Info : Advanced Video Codec
Format profile : High@L4.1
Format settings : CABAC / 4 Ref Frames
Format settings, CABAC : Yes
Format settings, Reference : 4 frames
Codec ID : V_MPEG4/ISO/AVC
Duration : 2 h 5 min
Bit rate : 10.4 Mb/s
Width : 1 920 pixels
Height : 1 036 pixels
Display aspect ratio : 1.85:1
Frame rate mode : Constant
Frame rate : 23.976 (24000/1001) FPS
Color space : YUV
Chroma subsampling : 4:2:0
Bit depth : 8 bits
Scan type : Progressive
Bits/(Pixel*Frame) : 0.218
Stream size : 9.14 GiB (91%)
Title : CMRG
Writing library : x264 core 152 r2851 ba24899
Encoding settings : cabac=1 / ref=4 / deblock=1:-1:-1 / analyse=0x3:0x133 / me=umh / subme=10 / psy=1 / psy_rd=1.05:0.00 / mixed_ref=1 / me_range=24 / chroma_me=1 / trellis=2 / 8x8dct=1 / cqm=0 / deadzone=21,11 / fast_pskip=1 / chroma_qp_offset=-2 / threads=32 / lookahead_threads=3 / sliced_threads=0 / nr=0 / decimate=1 / interlaced=0 / bluray_compat=0 / constrained_intra=0 / bframes=4 / b_pyramid=2 / b_adapt=2 / b_bias=0 / direct=1 / weightb=1 / open_gop=0 / weightp=2 / keyint=250 / keyint_min=23 / scenecut=40 / intra_refresh=0 / rc_lookahead=40 / rc=crf / mbtree=1 / crf=17.0 / qcomp=0.60 / qpmin=0 / qpmax=69 / qpstep=4 / ip_ratio=1.40 / aq=2:0.90
Language : English
Default : Yes
Forced : No
Color range : Limited
Color primaries : BT.709
Transfer characteristics : BT.709
Matrix coefficients : BT.709

Audio #1
ID : 2
Format : AC-3
Format/Info : Audio Coding 3
Commercial name : Dolby Digital
Codec ID : A_AC3
Duration : 2 h 5 min
Bit rate mode : Constant
Bit rate : 384 kb/s
Channel(s) : 6 channels
Channel layout : L R C LFE Ls Rs
Sampling rate : 48.0 kHz
Frame rate : 31.250 FPS (1536 SPF)
Bit depth : 16 bits
Compression mode : Lossy
Stream size : 346 MiB (3%)
Title : iTunes
Language : Russian
Service kind : Complete Main
Default : Yes
Forced : Yes

Audio #2
ID : 3
Format : AC-3
Format/Info : Audio Coding 3
Commercial name : Dolby Digital
Codec ID : A_AC3
Duration : 2 h 5 min
Bit rate mode : Constant
Bit rate : 640 kb/s
Channel(s) : 6 channels
Channel layout : L R C LFE Ls Rs
Sampling rate : 48.0 kHz
Frame rate : 31.250 FPS (1536 SPF)
Bit depth : 16 bits
Compression mode : Lossy
Stream size : 576 MiB (6%)
Title : Original
Language : English
Service kind : Complete Main
Default : No
Forced : No

Text #1
ID : 4
Format : UTF-8
Codec ID : S_TEXT/UTF8
Codec ID/Info : UTF-8 Plain Text
Duration : 2 h 4 min
Bit rate : 69 b/s
Count of elements : 1540
Stream size : 63.2 KiB (0%)
Title : Full
Language : Russian
Default : No
Forced : No

Text #2
ID : 5
Format : UTF-8
Codec ID : S_TEXT/UTF8
Codec ID/Info : UTF-8 Plain Text
Duration : 1 h 57 min
Bit rate : 56 b/s
Count of elements : 1852
Stream size : 48.7 KiB (0%)
Title : SDH
Language : English
Default : No
Forced : No

Menu
00:00:00.000 : en:(01)00:00:00:000
00:09:33.906 : en:(02)00:09:33:906
00:23:35.122 : en:(03)00:23:35:122
00:36:28.728 : en:(04)00:36:28:728
00:55:40.754 : en:(05)00:55:40:754
01:17:07.789 : en:(06)01:17:07:789
01:33:05.246 : en:(07)01:33:05:246
01:46:45.399 : en:(08)01:46:45:399
01:58:26.808 : en:(09)01:58:26:808
Мы в соц сетях:
Посмотреть товар в профиле пользователя

Нажмите на изображение, чтобы увидеть в полный размер  
1 шт.
Нажмите на изображение, чтобы увидеть в полный размер  
1 шт.
Нажмите на изображение, чтобы увидеть в полный размер  
1 шт.
Нажмите на изображение, чтобы увидеть в полный размер  
1 шт.
  • Торрент
Автор: PREDATOR-DJ Хэш: ---
Добавлен: 12 май 2019, 04:44 Приватный: Нет (DHT включён)
Статус: Проверен
Размер: 10.04 ГБ (10 779 445 771 байт)
Изменил:
---
Скачали: 2856 (Раздающих: 100%)
Причина:
---
Здоровье: 100%
Сидеров: 336 Личеров: 31
Скорость раздачи: 0 байт/сек Скорость скачивания: 0 байт/сек
Последний сидер: 58 секунд назад Последний личер: 1 день 19 часов 46 минут 31 секунду назад
Для скачивания торрента необходимо зарегистрироваться или войти на трекер.
PREDATOR-DJ Аватара пользователя
Администратор
Администратор

Раздал: 35.97 ТБ
Скачал: 3.83 ТБ
Ратио: 9.390
Сообщения: 1750

Зарегистрирован: 15 авг 2016, 12:12
В кошельке: 6,561.00
Банк: 64,280.50
Откуда: Зазеркалье
Награды: 8
Путь к журналисту (1) Админ (1) За заслуги перед форумом (1) Спасибо тебе! (1)
Админcтво в Battlefield (1) В обмен на рекламный банер (1) Голосовой чат Mumble (1) Раздал 1 Tb (1)
Заслуженная репутация: 20
НовичокНовичокНовичокНовичокНовичок

Обалденный, пропитанный положительными эмоциями фильм. Классные диалоги, не какие то обыденные штамповки, а всё в духе. Попытка автора свести 2 разные "цивилизации", совершенно разные, и казалось бы ничем не связанные - удалась.
Мы в соц сетях:
Посмотреть товар в профиле пользователя

Нажмите на изображение, чтобы увидеть в полный размер  
1 шт.
Нажмите на изображение, чтобы увидеть в полный размер  
1 шт.
Нажмите на изображение, чтобы увидеть в полный размер  
1 шт.
Нажмите на изображение, чтобы увидеть в полный размер  
1 шт.

Вернуться в Зарубежное кино | Высокое качество [Ultra HD, HD DVD, BD-Rip и Blu-ray]


cron
Ресурс не предоставляет электронные версии произведений, а занимается лишь коллекционированием и каталогизацией ссылок, присылаемых и публикуемых на форуме нашими читателями. Если вы являетесь правообладателем какого-либо представленного материала и не желаете чтобы ссылка на него находилась в нашем каталоге, свяжитесь с нами и мы незамедлительно удалим её. Файлы для обмена на трекере предоставлены пользователями сайта, и администрация не несёт ответственности за их содержание. Просьба не заливать файлы, защищенные авторскими правами, а также файлы нелегального содержания!
cron