Остров головорезов | Cutthroat Island (1995) BDRip 1080p

Модераторы: Модераторы, Модераторы фильмов

PREDATOR-DJ Аватара пользователя
Администратор
Администратор

Раздал: 37.27 ТБ
Скачал: 3.89 ТБ
Ратио: 9.587
Сообщения: 1876

Зарегистрирован: 15 авг 2016, 12:12
В кошельке: 7,840.00
Банк: 77,768.50
Откуда: Зазеркалье
Награды: 8
Путь к журналисту (1) Админ (1) За заслуги перед форумом (1) Спасибо тебе! (1)
Админcтво в Battlefield (1) В обмен на рекламный банер (1) Голосовой чат Mumble (1) Раздал 1 Tb (1)
Заслуженная репутация: 20
НовичокНовичокНовичокНовичокНовичок

  • Постеры
Название: Остров головорезов
Оригинальное название: Cutthroat Island
Год выхода: 1995
Жанр: боевик, мелодрама, комедия, приключения, семейный
Режиссер: Ренни Харлин
В ролях: Джина Дэвис, Мэтью Модайн, Фрэнк Ланджелла, Мори Чайкин, Патрик Мэлахайд, Стэн Шоу, Рекс Линн, Пол Диллон, Кристофер Мастерсон, Джимми Ф. Скэггз

О фильме: Отважная дочь пирата Морган Эдамс жаждет отомстить за своего отца, погибшего от рук собственного брата. Ей досталась в наследство треть карты Острова Головорезов с обозначением места, где спрятаны несметные сокровища. Чтобы добраться до них, Морган набирает команду из старых боевых товарищей отца. На аукционе рабов в Порт-Ройяле на Ямайке она покупает авантюриста и проходимца Уильяма Шоу, у которого оказывается вторая часть карты. Но главная проблема в том, что последняя часть карты находится у злого и коварного дяди Морган — пирата по прозвищу «Дог»…



Выпущено: Metro-Goldwyn-Mayer (MGM)
Продолжительность: 02:04:32
Перевод: Профессиональный (многоголосый, закадровый) (Киномания)

Кодек: x264
Качество: BDRip (источник: Blu-ray Disc)
Видео: 1920x816 (2,35:1), 23.976 fps, 4580 kbps
Звук: 48 kHz, AC-3, 6 ch, 448 kbps
Субтитры: Русские, Английские
Скачать: сэмпл

Общее
Уникальный идентификатор : 232164350316880384496617443223642673325 (0xAEA93A38D0FCD23BA2FAB96CBFF190AD)
Полное имя : Cutthroat.Island.1995.BDRip.1080p.Rus.mkv
Формат : Matroska
Версия формата : Version 2
Размер файла : 4,37 Гбайт
Продолжительность : 2 ч. 4 м.
Общий поток : 5028 Кбит/сек
Дата кодирования : UTC 2011-09-06 00:03:46
Программа кодирования : mkvmerge v4.0.0 ('The Stars were mine') сборка от Jun 6 2010 16:18:42
Библиотека кодирования : libebml v1.0.0 + libmatroska v1.0.0

Видео
Идентификатор : 1
Формат : AVC
Формат/Информация : Advanced Video Codec
Профиль формата : High@L4.1
Параметр CABAC формата : Да
Параметр ReFrames формата : 5 кадров
Идентификатор кодека : V_MPEG4/ISO/AVC
Продолжительность : 2 ч. 4 м.
Битрейт : 4580 Кбит/сек
Ширина : 1920 пикселей
Высота : 816 пикселей
Соотношение сторон : 2,35:1
Частота кадров : 23,976 кадра/сек
Цветовое пространство : YUV
Субдискретизация насыщенности : 4:2:0
Битовая глубина : 8 бит
Тип развёртки : Прогрессивная
Бит/(Пиксели*Кадры) : 0.122
Размер потока : 3,90 Гбайт (89%)
Библиотека кодирования : x264 core 116 r2074 2641b9e
Настройки программы : cabac=1 / ref=5 / deblock=1:0:0 / analyse=0x3:0x133 / me=umh / subme=10 / psy=1 / psy_rd=1.00:0.10 / mixed_ref=1 / me_range=32 / chroma_me=1 / trellis=2 / 8x8dct=1 / cqm=0 / deadzone=21,11 / fast_pskip=0 / chroma_qp_offset=-3 / threads=12 / sliced_threads=0 / nr=0 / decimate=1 / interlaced=0 / bluray_compat=0 / constrained_intra=0 / bframes=5 / b_pyramid=2 / b_adapt=2 / b_bias=0 / direct=3 / weightb=1 / open_gop=0 / weightp=2 / keyint=250 / keyint_min=23 / scenecut=40 / intra_refresh=0 / rc_lookahead=60 / rc=2pass / mbtree=1 / bitrate=4580 / ratetol=1.0 / qcomp=0.60 / qpmin=0 / qpmax=69 / qpstep=4 / cplxblur=20.0 / qblur=0.5 / ip_ratio=1.40 / aq=1:1.00
Язык : English

Аудио
Идентификатор : 2
Формат : AC-3
Формат/Информация : Audio Coding 3
Расширение режима : CM (complete main)
Идентификатор кодека : A_AC3
Продолжительность : 2 ч. 4 м.
Вид битрейта : Постоянный
Битрейт : 448 Кбит/сек
Каналы : 6 каналов
Расположение каналов : Front: L C R, Side: L R, LFE
Частота : 48,0 КГц
Битовая глубина : 16 бит
Метод сжатия : С потерями
Размер потока : 399 Мбайт (9%)
Язык : Russian

Текст #1
Идентификатор : 3
Формат : UTF-8
Идентификатор кодека : S_TEXT/UTF8
Идентификатор кодека/Информация : UTF-8 Plain Text
Язык : Russian

Текст #2
Идентификатор : 4
Формат : UTF-8
Идентификатор кодека : S_TEXT/UTF8
Идентификатор кодека/Информация : UTF-8 Plain Text
Язык : English

Меню
00:00:00.000 : :Chapter 01
00:08:38.309 : :Chapter 02
00:16:06.757 : :Chapter 03
00:24:43.898 : :Chapter 04
00:32:14.931 : :Chapter 05
00:44:02.765 : :Chapter 06
00:51:50.982 : :Chapter 07
00:59:58.136 : :Chapter 08
01:04:07.260 : :Chapter 09
01:12:05.654 : :Chapter 10
01:16:25.664 : :Chapter 11
01:25:20.113 : :Chapter 12
01:32:41.347 : :Chapter 13
01:41:38.592 : :Chapter 14
01:49:45.203 : :Chapter 15
01:55:41.351 : :Chapter 16
02:04:32.047 : :Chapter 17
Мы в соц сетях:
Посмотреть товар в профиле пользователя

Нажмите на изображение, чтобы увидеть в полный размер  
1 шт.
Нажмите на изображение, чтобы увидеть в полный размер  
1 шт.
Нажмите на изображение, чтобы увидеть в полный размер  
1 шт.
Нажмите на изображение, чтобы увидеть в полный размер  
1 шт.
  • Торрент
Автор: PREDATOR-DJ Хэш: ---
Добавлен: 18 ноя 2016, 22:38 Приватный: Нет (DHT включён)
Статус: Проверен
Размер: 4.37 ГБ (4 696 381 757 байт)
Изменил: PREDATOR-DJ (18 ноя 2016, 22:39)
Скачали: 1 (Раздающих: 100%)
Причина: http://rus-film.org/torrent/137436/ostrov-golovorezov_cutthroat-island-1995-bdrip-1080p/
Здоровье: 100%
Сидеров: 14 Личеров: 3
Скорость раздачи: 0 байт/сек Скорость скачивания: 0 байт/сек
Последний сидер: 15 минут 36 секунд назад Последний личер: 20 дней 20 часов 56 минут 31 секунду назад
Для скачивания торрента необходимо зарегистрироваться или войти на трекер.

Вернуться в Зарубежное кино | Высокое качество [Ultra HD, HD DVD, BD-Rip и Blu-ray]


Ресурс не предоставляет электронные версии произведений, а занимается лишь коллекционированием и каталогизацией ссылок, присылаемых и публикуемых на форуме нашими читателями. Если вы являетесь правообладателем какого-либо представленного материала и не желаете чтобы ссылка на него находилась в нашем каталоге, свяжитесь с нами и мы незамедлительно удалим её. Файлы для обмена на трекере предоставлены пользователями сайта, и администрация не несёт ответственности за их содержание. Просьба не заливать файлы, защищенные авторскими правами, а также файлы нелегального содержания!
cron