Поместье / The Manor (Аксель Кэролин) [2021, ужасы, WEB-DL 1080p] [Pazl Voice]

Все последние горячие новинки можно скачать здесь.

Модераторы: Модераторы, Модераторы фильмов

Sonik Аватара пользователя
Модератор
Модератор

Раздал: 4.04 ТБ
Скачал: 2.01 ТБ
Ратио: 2.007
Сообщения: 961

Зарегистрирован: 13 сен 2017, 00:19
В кошельке: 12,781.00
Награды: 5
Путь к журналисту (1) Журналист (1) Старший журналист (1) Богат как фараон (1)
С Днем Рождения! (1)
Заслуженная репутация: 4
  • Постеры
Поместье / The Manor
Год выпуска: 2021
Страна: США
Студия: Amazon Studios, Blumhouse Television
Жанр: ужасы
Продолжительность: 01:21:11
Перевод: Любительский двухголосый (Pazl Voice)
Субтитры: Русские, английские
Режиссер:
Аксель Кэролин
В ролях:
Барбара Херши, Брюс Дэвисон, Николас Александр, Джилл Ларсон, Фран Беннетт, Кэти А. Кин, Цейра Пайтон, Нэнси Лайнхэн Чарльз, Шелли Робертсон, Стэйси Трэвис
Описание:
Джудит Олбрайт пожилая женщина, которая пережила инсульт. После этого она переезжает в исторический дом престарелых, чтобы находиться под постоянным присмотром. Вот только героиня начинает подозревать, что постояльцев этого заведения преследует нечто сверхъестественное.
Качество: WEB-DL 1080p
Формат: MKV
Видео кодек: AVC
Аудио кодек: АС3/E-АС3
Видео: 7124 Кbps, 1920x800, ~23.976 fps
Аудио #01: AC3, 48.0 KHz, 6 ch, 448 Кbps | RUS
Аудио #02: E-AC3, 48.0 KHz, 6 ch, 640 Кbps | ENG
Код:
Формат : Matroska
Версия формата : Version 4
Размер файла : 4,66 Гбайт
Продолжительность : 1 ч. 21 м.
Общий поток : 8 214 Кбит/сек
Название фильма : Поместье.2021.WEB-DL.1080p_
Дата кодирования : UTC 2021-10-09 03:06:29
Программа кодирования : mkvmerge v59.0.0 ('Shining Star') 64-bit
Библиотека кодирования : libebml v1.4.2 + libmatroska v1.6.4

Видео
Идентификатор : 1
Формат : AVC
Формат/Информация : Advanced Video Codec
Профиль формата : High@L4
Настройки формата : CABAC / 4 Ref Frames
Параметр CABAC формата : Да
Параметр RefFrames формата : 4 кадра
Идентификатор кодека : V_MPEG4/ISO/AVC
Продолжительность : 1 ч. 21 м.
Вид битрейта : Постоянный
Битрейт : 7 124 Кбит/сек
Номинальный битрейт : 10 000 Кбит/сек
Ширина : 1 920 пикселей
Высота : 800 пикселей
Соотношение сторон : 2,40:1
Режим частоты кадров : Постоянный
Частота кадров : 23,976 (24000/1001) кадра/сек
Цветовое пространство : YUV
Субдискретизация насыщенности : 4:2:0
Битовая глубина : 8 бит
Тип развёртки : Прогрессивная
Бит/(Пиксели*Кадры) : 0.193
Размер потока : 4,04 Гбайт (87%)
Default : Да
Forced : Нет
Цветовой диапазон : Limited
Основные цвета : BT.709
Характеристики трансфера : BT.709
Коэффициенты матрицы : BT.709

Аудио #1
Идентификатор : 2
Формат : AC-3
Формат/Информация : Audio Coding 3
Коммерческое название : Dolby Digital
Идентификатор кодека : A_AC3
Продолжительность : 1 ч. 21 м.
Вид битрейта : Постоянный
Битрейт : 448 Кбит/сек
Каналы : 6 каналов
Channel layout : L R C LFE Ls Rs
Частота : 48,0 КГц
Частота кадров : 31,250 кадров/сек (1536 SPF)
Метод сжатия : С потерями
Размер потока : 260 Мбайт (5%)
Заголовок : [DVO] Pazl Voice
Язык : Russian
Service kind : Complete Main
Default : Да
Forced : Нет

Аудио #2
Идентификатор : 3
Формат : E-AC-3
Формат/Информация : Enhanced AC-3
Коммерческое название : Dolby Digital Plus
Идентификатор кодека : A_EAC3
Продолжительность : 1 ч. 21 м.
Вид битрейта : Постоянный
Битрейт : 640 Кбит/сек
Каналы : 6 каналов
Channel layout : L R C LFE Ls Rs
Частота : 48,0 КГц
Частота кадров : 31,250 кадров/сек (1536 SPF)
Метод сжатия : С потерями
Размер потока : 372 Мбайт (8%)
Язык : English
Service kind : Complete Main
Default : Нет
Forced : Нет

Текст #1
Идентификатор : 4
Формат : UTF-8
Идентификатор кодека : S_TEXT/UTF8
Идентификатор кодека/Информация : UTF-8 Plain Text
Продолжительность : 1 ч. 20 м.
Битрейт : 79 бит/сек
Count of elements : 953
Размер потока : 46,7 Кбайт (0%)
Заголовок : Russian
Язык : Russian
Default : Нет
Forced : Нет

Текст #2
Идентификатор : 5
Формат : UTF-8
Идентификатор кодека : S_TEXT/UTF8
Идентификатор кодека/Информация : UTF-8 Plain Text
Продолжительность : 1 ч. 20 м.
Битрейт : 65 бит/сек
Count of elements : 1444
Размер потока : 38,4 Кбайт (0%)
Заголовок : English
Язык : English
Default : Нет
Forced : Нет
  • Торрент
Автор: Sonik Хэш: ---
Добавлен: 17 окт 2021, 06:34 Приватный: Нет (DHT включён)
Статус: Проверен
Размер: 4.66 ГБ (5 001 644 067 байт)
Изменил: Sonik (17 окт 2021, 06:35)
Скачали: 1 (Раздающих: 0%)
Причина:
---
Здоровье: 0%
Сидеров: 0 Личеров: 0
Скорость раздачи: 0 байт/сек Скорость скачивания: 0 байт/сек
Последний сидер: 1 месяц 17 дней 40 минут 35 секунд назад Последний личер: 1 месяц 17 дней 1 час 8 минут 25 секунд назад
Для скачивания торрента необходимо зарегистрироваться или войти на трекер.

Вернуться в ГОРЯЧИЕ НОВИНКИ КИНО!


Ресурс не предоставляет электронные версии произведений, а занимается лишь коллекционированием и каталогизацией ссылок, присылаемых и публикуемых на форуме нашими читателями. Если вы являетесь правообладателем какого-либо представленного материала и не желаете чтобы ссылка на него находилась в нашем каталоге, свяжитесь с нами и мы незамедлительно удалим её. Файлы для обмена на трекере предоставлены пользователями сайта, и администрация не несёт ответственности за их содержание. Просьба не заливать файлы, защищенные авторскими правами, а также файлы нелегального содержания!
cron