Честный вор / Honest Thief (2020) BDRip 1080p

Все последние горячие новинки можно скачать здесь.

Модераторы: Модераторы, Модераторы фильмов

Sonik
Модератор
Модератор

Раздал: 3.75 ТБ
Скачал: 1.93 ТБ
Ратио: 1.946
Сообщения: 680

Зарегистрирован: 13 сен 2017, 00:19
В кошельке: 9,723.00
Награды: 5
Путь к журналисту (1) Журналист (1) Старший журналист (1) Богат как фараон (1)
С Днем Рождения! (1)
Заслуженная репутация: 4
  • Постеры
Информация о фильме
Название: Честный вор
Оригинальное название: Honest Thief
Год выхода: 2020
Жанр: Боевик, триллер, драма, криминал
Режиссер: Марк Уильямс
В ролях: Лиам Нисон, Кейт Уолш, Джай Кортни, Джеффри Донован, Роберт Патрик, Бироль Йильдиз, Адам Тепер, Хосе Ганз Алвес, Османи Родригес, Девон Дип, Джэми Хазарьян, Майкл Малвести

О фильме: Он – профессиональный грабитель банков, который решил отойти от дел. Но стать честным, будучи вором, не так просто: ему придется дать отпор продажным копам, чтобы спасти своё имя и любимую.



Страна: США
Студия: Cutting Edge Group, Dreadnought Films, Ingenious Media
Продолжительность: 01:38:32
Перевод: Дублированный | CAM

Файл
Кодек: x.264
Качество: BDRip 1080p | D | Line
Видео: MPEG-4 AVC, 11.8 Mбит/с, 1920x804, 24.000 кадр/с
Аудио #1: Русский (АС3, 2 ch, 192 Кбит/с, 48.0 KHz) Профессиональный (дублированный) Line
Аудио #2: Английский (АС3, 6 ch, 640 Кбит/с, 48.0 KHz)
Субтитры: английские
► Без Рекламы!

Источник: Honest.Thief.2020.1080p.BluRay.x264.DTS-MT
General
Unique ID : 183007697342016799444190298482997504973 (0x89AE001C9A288D02BF026454AF2CABCD)
Complete name : Honest.Thief.2020.BDRip.1080p.mkv
Format : Matroska
Format version : Version 4
File size : 8.69 GiB
Duration : 1 h 38 min
Overall bit rate : 12.6 Mb/s
Encoded date : UTC 2020-12-09 11:10:05
Writing application : mkvmerge v7.1.0 ('Good Love') 64bit built on Jul 27 2014 13:06:55
Writing library : libebml v1.3.0 + libmatroska v1.4.1

Video
ID : 1
Format : AVC
Format/Info : Advanced Video Codec
Format profile : High@L4.1
Format settings : CABAC / 5 Ref Frames
Format settings, CABAC : Yes
Format settings, Reference fra : 5 frames
Codec ID : V_MPEG4/ISO/AVC
Duration : 1 h 38 min
Bit rate : 11.8 Mb/s
Width : 1 920 pixels
Height : 804 pixels
Display aspect ratio : 2.40:1
Frame rate mode : Constant
Frame rate : 24.000 FPS
Color space : YUV
Chroma subsampling : 4:2:0
Bit depth : 8 bits
Scan type : Progressive
Bits/(Pixel*Frame) : 0.318
Stream size : 8.12 GiB (93%)
Writing library : x264 core 157 r2938 2b00a84 TnP@MTeam Mod
Encoding settings : cabac=1 / ref=5 / deblock=1:-3:-3 / analyse=0x3:0x133 / me=umh / subme=10 / psy=1 / psy_rd=1.05:0.00 / mixed_ref=1 / me_range=32 / chroma_me=1 / trellis=2 / 8x8dct=1 / cqm=0 / deadzone=21,11 / fast_pskip=0 / chroma_qp_offset=-2 / threads=12 / lookahead_threads=2 / sliced_threads=0 / nr=0 / decimate=0 / interlaced=0 / bluray_compat=0 / constrained_intra=0 / bframes=8 / b_pyramid=2 / b_adapt=2 / b_bias=0 / direct=3 / weightb=1 / open_gop=0 / weightp=2 / keyint=250 / keyint_min=24 / scenecut=40 / intra_refresh=0 / rc_lookahead=250 / rc=crf / mbtree=0 / crf=16.8 / qcomp=0.60 / qpmin=0 / qpmax=69 / qpstep=4 / vbv_maxrate=62500 / vbv_bufsize=78125 / crf_max=0.0 / nal_hrd=none / filler=0 / ip_ratio=1.30 / pb_ratio=1.20 / aq=3:0.80
Language : English
Default : Yes
Forced : No
Color range : Limited
Color primaries : BT.709
Matrix coefficients : BT.709

Audio #1
ID : 2
Format : AC-3
Format/Info : Audio Coding 3
Commercial name : Dolby Digital
Codec ID : A_AC3
Duration : 1 h 38 min
Bit rate mode : Constant
Bit rate : 192 kb/s
Channel(s) : 2 channels
Channel layout : L R
Sampling rate : 48.0 kHz
Frame rate : 31.250 FPS (1536 SPF)
Compression mode : Lossy
Stream size : 135 MiB (2%)
Language : Russian
Service kind : Complete Main
Default : Yes
Forced : No

Audio #2
ID : 3
Format : AC-3
Format/Info : Audio Coding 3
Commercial name : Dolby Digital
Codec ID : A_AC3
Duration : 1 h 38 min
Bit rate mode : Constant
Bit rate : 640 kb/s
Channel(s) : 6 channels
Channel layout : L R C LFE Ls Rs
Sampling rate : 48.0 kHz
Frame rate : 31.250 FPS (1536 SPF)
Compression mode : Lossy
Stream size : 451 MiB (5%)
Language : English
Service kind : Complete Main
Default : No
Forced : No

Text
ID : 4
Format : UTF-8
Codec ID : S_TEXT/UTF8
Codec ID/Info : UTF-8 Plain Text
Duration : 1 h 28 min
Bit rate : 54 b/s
Count of elements : 1111
Stream size : 35.6 KiB (0%)
Language : English
Default : No
Forced : No

Menu
00:00:00.000 : en:Chapter 01
00:07:44.667 : en:Chapter 02
00:14:48.208 : en:Chapter 03
00:19:37.750 : en:Chapter 04
00:24:50.292 : en:Chapter 05
00:34:49.500 : en:Chapter 06
00:45:43.583 : en:Chapter 07
00:56:30.833 : en:Chapter 08
01:06:27.250 : en:Chapter 09
01:14:13.667 : en:Chapter 10
01:22:05.375 : en:Chapter 11
01:30:00.167 : en:Chapter 12
  • Торрент
Автор: Sonik Хэш: ---
Добавлен: 12 дек 2020, 06:08 Приватный: Нет (DHT включён)
Статус: Проверен
Размер: 8.69 ГБ (9 333 716 350 байт)
Изменил: Sonik (12 дек 2020, 06:08)
Скачали: 1 (Раздающих: 0%)
Причина:
---
Здоровье: 0%
Сидеров: 0 Личеров: 0
Скорость раздачи: 0 байт/сек Скорость скачивания: 0 байт/сек
Последний сидер: 7 дней 17 часов 42 минуты 10 секунд назад Последний личер: 1 месяц 3 дня 22 часа 49 минут 46 секунд назад
Для скачивания торрента необходимо зарегистрироваться или войти на трекер.

Вернуться в ГОРЯЧИЕ НОВИНКИ КИНО!


cron
Ресурс не предоставляет электронные версии произведений, а занимается лишь коллекционированием и каталогизацией ссылок, присылаемых и публикуемых на форуме нашими читателями. Если вы являетесь правообладателем какого-либо представленного материала и не желаете чтобы ссылка на него находилась в нашем каталоге, свяжитесь с нами и мы незамедлительно удалим её. Файлы для обмена на трекере предоставлены пользователями сайта, и администрация не несёт ответственности за их содержание. Просьба не заливать файлы, защищенные авторскими правами, а также файлы нелегального содержания!
cron