Приложение / The App (2019) WEB-DL 1080p | L2

Все последние горячие новинки можно скачать здесь.

Модераторы: Модераторы, Модераторы фильмов

Sonik Аватара пользователя
Модератор
Модератор

Раздал: 2.14 ТБ
Скачал: 1.57 ТБ
Ратио: 1.365
Сообщения: 448

Зарегистрирован: 13 сен 2017, 00:19
В кошельке: 6,381.00
Награды: 4
Путь к журналисту (1) Журналист (1) Богат как фараон (1) С Днем Рождения! (1)
Заслуженная репутация: 4
  • Постеры
Название: Приложение
Оригинальное название: The App
Год выхода: 2019
Жанр: драма
Режиссер: Элиза Фуксас / Elisa Fuksas
В ролях: Винченцо Креа, Грета Скарано, Джессика Крисси

О фильме:
У него всё есть: любящая девушка, семейное состояние, роль в фильме. Но незнакомка из приложения на телефоне захватывает все его мысли

Страна: Италия
Студия: Netflix
Продолжительность: 01:19:18
Перевод: любительский (двухголосый закадровый) Blithe@qwerty

Кодек: AVC
Качество: WEB-DL 1080p
Видео: 1920*1080 24 fps 4728 kbps 0.095 b/pxl
Звук: 44,1 кГ, ac3, 6 ch, 384 kb/c

Семпл

Формат : MPEG-4
Идентификатор кодека : isom (isom/iso2/avc1/mp41)
Размер файла : 2,83 Гбайт
Продолжительность : 1 ч. 19 м.
Общий поток : 5115 Кбит/сек

Видео
Идентификатор : 1
Формат : AVC
Формат/Информация : Advanced Video Codec
Профиль формата : Baseline@L4
Настройки формата : 1 Ref Frames
Параметр CABAC формата : Нет
Параметр RefFrames формата : 1 кадр
Параметр GOP формата : M=1, N=12
Идентификатор кодека : avc1
Идентификатор кодека/Информация : Advanced Video Coding
Продолжительность : 1 ч. 19 м.
Битрейт : 4728 Кбит/сек
Ширина : 1920 пикселей
Высота : 1080 пикселей
Соотношение сторон : 16:9
Режим частоты кадров : Постоянный
Частота кадров : 24,000 кадра/сек
Цветовое пространство : YUV
Субдискретизация насыщенности : 4:2:0
Битовая глубина : 8 бит
Тип развёртки : Прогрессивная
Бит/(Пиксели*Кадры) : 0.095
Размер потока : 2,62 Гбайт (92%)
Язык : Russian
Codec configuration box : avcC

Аудио
Идентификатор : 2
Формат : AC-3
Формат/Информация : Audio Coding 3
Коммерческое название : Dolby Digital
Идентификатор кодека : ac-3
Продолжительность : 1 ч. 19 м.
Вид битрейта : Постоянный
Битрейт : 384 Кбит/сек
Каналы : 6 каналов
ChannelLayout : L R C LFE Ls Rs
Частота : 44,1 КГц
Частота кадров : 28,711 кадров/сек (1536 SPF)
Битовая глубина : 16 бит
Метод сжатия : С потерями
Размер потока : 218 Мбайт (8%)
Язык : Russian



Торрент взят с http://zerkalo-rutor.org/torrent/738405 ... -1080p-l2/
  • Торрент
Автор: Sonik Хэш: ---
Добавлен: 10 янв 2020, 18:09 Приватный: Нет (DHT включён)
Статус: Проверен
Размер: 2.83 ГБ (3 042 298 272 байт)
Изменил: Sonik (10 янв 2020, 18:09)
Скачали: 1516 (Раздающих: 0%)
Причина:
---
Здоровье: 100%
Сидеров: 54 Личеров: 3
Скорость раздачи: 0 байт/сек Скорость скачивания: 0 байт/сек
Последний сидер: 15 часов 4 минуты 55 секунд назад Последний личер: 15 часов 4 минуты 55 секунд назад
Для скачивания торрента необходимо зарегистрироваться или войти на трекер.

Вернуться в ГОРЯЧИЕ НОВИНКИ КИНО!


Ресурс не предоставляет электронные версии произведений, а занимается лишь коллекционированием и каталогизацией ссылок, присылаемых и публикуемых на форуме нашими читателями. Если вы являетесь правообладателем какого-либо представленного материала и не желаете чтобы ссылка на него находилась в нашем каталоге, свяжитесь с нами и мы незамедлительно удалим её. Файлы для обмена на трекере предоставлены пользователями сайта, и администрация не несёт ответственности за их содержание. Просьба не заливать файлы, защищенные авторскими правами, а также файлы нелегального содержания!
cron