Обезьяны / Monos (2019) WEBRip 1080p | LakeFilms

Все последние горячие новинки можно скачать здесь.

Модераторы: Модераторы, Модераторы фильмов

Sonik Аватара пользователя
Модератор
Модератор

Раздал: 2.14 ТБ
Скачал: 1.57 ТБ
Ратио: 1.365
Сообщения: 447

Зарегистрирован: 13 сен 2017, 00:19
В кошельке: 6,366.00
Награды: 4
Путь к журналисту (1) Журналист (1) Богат как фараон (1) С Днем Рождения! (1)
Заслуженная репутация: 4
  • Постеры
Название: Обезьяны
Оригинальное название: Monos
Год выпуска: 2019
Жанр: Триллер, драма
Выпущено: Колумбия, Аргентина, Нидерланды, Германия, Швеция, Уругвай, США, Швейцария, Дания, Stela Cine, Bord Cadre Films
Режиссер: Алехандро Ландес
В ролях: София Буэнавентура, Джулиан Хиральдо, Карен Кинтеро, Лаура Кастрильон, Дейби Руэда, Пол Кубидес, Снейдер Кастро, Мойзес Ариас, Джулианна Николсон, Уилсон Салазар

О фильме: Сюжет картины переносит нас в северную Колумбию, где происходят по-настоящему ужасные события. Группа молодых людей стараются выжить в непростых условиях. Однажды ребята решают захватить заложника и потребовать за его жизнь выкуп. Героям кажется, что это просто веселая игра, и в их действиях совершенно нет ничего плохого. Постепенно вчерашние мальчики и девочки полностью теряют контроль над своим разумом и превращаются в жестоких зверей.



Техданные
Качество: WEBRip (1080p)
Видео: MPEG-4 AVC, ~ 2 800 kb/s, 1920x800, 24.000 FPS
Аудио: AC3, 2 ch, 384 Кбит/с
Продолжительность: 01:44:00
Перевод: Любительский двухголосый закадровый (LakeFilms)
Субтитры: английские (хардсаб)
Присутствует реклама!


General
Unique ID : 27130025433711176757856602526670987891 (0x14690D86C1C46E7737A0495F7BA12273)
Complete name : E:Monos.2019.1080p.LakeFilms.mkv
Format : Matroska
Format version : Version 4 / Version 2
File size : 2.24 GiB
Duration : 1 h 44 min
Overall bit rate : 3 089 kb/s
Writing application : XviD4PSP 8.0.96
Writing library : Lavf58.29.100
ErrorDetectionType : Per level 1
ENCODING_INFO : MATROSKA,WEBM > MKV 1080p

Video
ID : 1
Format : AVC
Format/Info : Advanced Video Codec
Format profile : High@L4
Format settings : CABAC / 4 Ref Frames
Format settings, CABAC : Yes
Format settings, RefFrames : 4 frames
Codec ID : V_MPEG4/ISO/AVC
Duration : 1 h 44 min
Bit rate : 2 800 kb/s
Width : 1 920 pixels
Height : 800 pixels
Display aspect ratio : 2.40:1
Frame rate mode : Constant
Frame rate : 23.976 (24000/1001) FPS
Color space : YUV
Chroma subsampling : 4:2:0
Bit depth : 8 bits
Scan type : Progressive
Bits/(Pixel*Frame) : 0.076
Stream size : 1.97 GiB (88%)
Writing library : x264 core 157 r2958 57baac4
Encoding settings : cabac=1 / ref=1 / deblock=1:-2:-2 / analyse=0x3:0x3 / me=dia / subme=2 / psy=1 / psy_rd=1.00:0.00 / mixed_ref=0 / me_range=8 / chroma_me=1 / trellis=0 / 8x8dct=1 / cqm=0 / deadzone=21,11 / fast_pskip=1 / chroma_qp_offset=0 / threads=5 / lookahead_threads=1 / sliced_threads=0 / nr=0 / decimate=1 / interlaced=0 / bluray_compat=0 / constrained_intra=0 / bframes=3 / b_pyramid=2 / b_adapt=1 / b_bias=0 / direct=1 / weightb=1 / open_gop=0 / weightp=1 / keyint=240 / keyint_min=24 / scenecut=40 / intra_refresh=0 / rc=abr / mbtree=0 / bitrate=2800 / ratetol=1.0 / qcomp=0.60 / qpmin=0 / qpmax=69 / qpstep=4 / ip_ratio=1.40 / pb_ratio=1.30 / aq=1:1.00
Default : Yes
Forced : No
ENCODING_INFO : H264 > X264 ABR 2800kbps Super Fast

Audio
ID : 2
Format : AC-3
Format/Info : Audio Coding 3
Codec ID : A_AC3
Duration : 1 h 44 min
Bit rate mode : Constant
Bit rate : 320 kb/s
Channel(s) : 2 channels
Channel positions : Front: L R
Sampling rate : 48.0 kHz
Frame rate : 31.250 FPS (1536 SPF)
Bit depth : 16 bits
Compression mode : Lossy
Stream size : 238 MiB (10%)
Service kind : Complete Main
Default : Yes
Forced : No
ENCODING_INFO : AAC-LC > AC3 CBR 320kbps


Торрент взят с http://zerkalo-rutor.org/torrent/738683 ... lakefilms/
  • Торрент
Автор: Sonik Хэш: ---
Добавлен: 10 янв 2020, 18:02 Приватный: Нет (DHT включён)
Статус: Проверен
Размер: 2.24 ГБ (2 409 940 565 байт)
Изменил: Sonik (10 янв 2020, 18:02)
Скачали: 2967 (Раздающих: 0%)
Причина:
---
Здоровье: 100%
Сидеров: 1616 Личеров: 355
Скорость раздачи: 0 байт/сек Скорость скачивания: 0 байт/сек
Последний сидер: 9 часов 6 минут 8 секунд назад Последний личер: 9 часов 6 минут 8 секунд назад
Для скачивания торрента необходимо зарегистрироваться или войти на трекер.

Вернуться в ГОРЯЧИЕ НОВИНКИ КИНО!


cron
Ресурс не предоставляет электронные версии произведений, а занимается лишь коллекционированием и каталогизацией ссылок, присылаемых и публикуемых на форуме нашими читателями. Если вы являетесь правообладателем какого-либо представленного материала и не желаете чтобы ссылка на него находилась в нашем каталоге, свяжитесь с нами и мы незамедлительно удалим её. Файлы для обмена на трекере предоставлены пользователями сайта, и администрация не несёт ответственности за их содержание. Просьба не заливать файлы, защищенные авторскими правами, а также файлы нелегального содержания!
cron