Маяк / The Lighthouse [Ужасы, фэнтези, драма, детектив, 2019] BDRemux 1080p, Mvo

Все последние горячие новинки можно скачать здесь.

Модераторы: Модераторы, Модераторы фильмов

Sonik Аватара пользователя
Модератор
Модератор

Раздал: 2.14 ТБ
Скачал: 1.57 ТБ
Ратио: 1.365
Сообщения: 447

Зарегистрирован: 13 сен 2017, 00:19
В кошельке: 6,366.00
Награды: 4
Путь к журналисту (1) Журналист (1) Богат как фараон (1) С Днем Рождения! (1)
Заслуженная репутация: 4
  • Постеры
Информация о фильме
Название: Маяк
Оригинальное название: The Lighthouse
Год выхода: 2019
Жанр: Ужасы, фэнтези, драма, детектив
Режиссер: Роберт Эггерс
В ролях: Уиллем Дефо, Роберт Паттинсон, Валерия Караман

О фильме: 1890-е годы. Молодой Ифраим Уинслоу приезжает на отдалённый остров работать новым ассистентом смотрителя маяка. Его начальник — хромоногий и бородатый Томас Уэйк. Он обращается с помощником как с личным рабом и запрещает ему подниматься на сам маяк и управлять светом. Ифраиму предстоит провести в компании Уэйка четыре тяжёлые недели, в течение которых спокойный парень изменится навсегда.



Страна: Канада, США
Студия: A24, New Regency Pictures, RT Features
Продолжительность: 01:49:10
Перевод: Профессиональный многоголосый | HDRezka Studio
Субтитры: Русские (Full, (StasSlender, Focs)), английские

Файл
Формат: Matroska
Качество: BDRemux 1080p
Видео: AVC/H.264, 1920x1080, 34.7 Mbps, 23.976 fps
Аудио 1: AC-3, 6 ch, 448 Kbps | Русский
Аудио 2: DTS-HD MA, 6 ch, 3762 Kbps | Английский

General
Format : Matroska
Format version : Version 4
File size : 29.7 GiB
Duration : 1h 49mn
Overall bit rate mode : Variable
Overall bit rate : 39.0 Mbps
Movie name : The Lighthouse BDRemux 1080p pk
Encoded date : UTC 2020-01-04 21:29:04
Writing application : mkvmerge v42.0.0 ('Overtime') 64-bit
Writing library : libebml v1.3.10 + libmatroska v1.5.2

Video
ID : 1
Format : AVC
Format/Info : Advanced Video Codec
Format profile : High@L4.1
Format settings : CABAC / 4 Ref Frames
Format settings, CABAC : Yes
Format settings, ReFrames : 4 frames
Codec ID : V_MPEG4/ISO/AVC
Duration : 1h 49mn
Bit rate mode : Variable
Bit rate : 34.7 Mbps
Maximum bit rate : 37.0 Mbps
Width : 1 920 pixels
Height : 1 080 pixels
Display aspect ratio : 16:9
Frame rate mode : Constant
Frame rate : 23.976 (24000/1001) fps
Color space : YUV
Chroma subsampling : 4:2:0
Bit depth : 8 bits
Scan type : Progressive
Bits/(Pixel*Frame) : 0.699
Stream size : 26.5 GiB (89%)
Language : English
Default : Yes
Forced : No

Audio #1
ID : 2
Format : AC-3
Format/Info : Audio Coding 3
Commercial name : Dolby Digital
Codec ID : A_AC3
Duration : 1h 49mn
Bit rate mode : Constant
Bit rate : 448 Kbps
Channel(s) : 6 channels
Channel layout : L R C LFE Ls Rs
Sampling rate : 48.0 KHz
Frame rate : 31.250 fps (1536 SPF)
Compression mode : Lossy
Stream size : 350 MiB (1%)
Title : Russian MVO HDRezka Studio
Language : Russian
Service kind : Complete Main
Default : Yes
Forced : No

Audio #2
ID : 3
Format : DTS XLL
Format/Info : Digital Theater Systems
Commercial name : DTS-HD Master Audio
Codec ID : A_DTS
Duration : 1h 49mn
Bit rate mode : Variable
Bit rate : 3 762 Kbps
Channel(s) : 6 channels
Channel layout : C L R Ls Rs LFE
Sampling rate : 48.0 KHz
Frame rate : 93.750 fps (512 SPF)
Bit depth : 24 bits
Compression mode : Lossless
Stream size : 2.87 GiB (10%)
Title : English Original
Language : English
Default : No
Forced : No

Text #1
ID : 4
Format : UTF-8
Codec ID : S_TEXT/UTF8
Codec ID/Info : UTF-8 Plain Text
Duration : 1h 41mn
Bit rate : 55 bps
Count of elements : 863
Stream size : 41.4 KiB (0%)
Title : Russian full StasSlender
Language : Russian
Default : No
Forced : No

Text #2
ID : 5
Format : UTF-8
Codec ID : S_TEXT/UTF8
Codec ID/Info : UTF-8 Plain Text
Duration : 1h 43mn
Bit rate : 53 bps
Count of elements : 833
Stream size : 40.1 KiB (0%)
Title : Russian full Focs
Language : Russian
Default : No
Forced : No

Text #3
ID : 6
Format : UTF-8
Codec ID : S_TEXT/UTF8
Codec ID/Info : UTF-8 Plain Text
Duration : 1h 36mn
Bit rate : 33 bps
Count of elements : 763
Stream size : 23.6 KiB (0%)
Title : English full
Language : English
Default : No
Forced : No

Menu
00:00:00.000 : en:Chapter 1
00:06:49.534 : en:Chapter 2
00:11:47.957 : en:Chapter 3
00:13:44.949 : en:Chapter 4
00:19:52.900 : en:Chapter 5
00:25:33.949 : en:Chapter 6
00:29:54.793 : en:Chapter 7
00:36:23.181 : en:Chapter 8
00:41:28.653 : en:Chapter 9
00:51:00.307 : en:Chapter 10
00:55:48.303 : en:Chapter 11
01:03:43.695 : en:Chapter 12
01:09:40.718 : en:Chapter 13
01:19:01.820 : en:Chapter 14
01:24:46.707 : en:Chapter 15
01:39:42.602 : en:Chapter 16


Торрент взят с http://zerkalo-rutor.org/torrent/737943 ... x-1080p-p/
  • Торрент
Автор: Sonik Хэш: ---
Добавлен: 06 янв 2020, 05:27 Приватный: Нет (DHT включён)
Статус: Проверен
Размер: 29.7 ГБ (31 893 114 220 байт)
Изменил: Sonik (06 янв 2020, 05:27)
Скачали: 397 (Раздающих: 0%)
Причина:
---
Здоровье: 100%
Сидеров: 58 Личеров: 42
Скорость раздачи: 0 байт/сек Скорость скачивания: 0 байт/сек
Последний сидер: 9 часов 6 минут 13 секунд назад Последний личер: 9 часов 6 минут 13 секунд назад
Для скачивания торрента необходимо зарегистрироваться или войти на трекер.

Вернуться в ГОРЯЧИЕ НОВИНКИ КИНО!


cron
Ресурс не предоставляет электронные версии произведений, а занимается лишь коллекционированием и каталогизацией ссылок, присылаемых и публикуемых на форуме нашими читателями. Если вы являетесь правообладателем какого-либо представленного материала и не желаете чтобы ссылка на него находилась в нашем каталоге, свяжитесь с нами и мы незамедлительно удалим её. Файлы для обмена на трекере предоставлены пользователями сайта, и администрация не несёт ответственности за их содержание. Просьба не заливать файлы, защищенные авторскими правами, а также файлы нелегального содержания!
cron