Курьер / The Courier [Боевик, триллер, драма, 2019] WEB-DLRip-AVC, Dub [iTunes]

Все последние горячие новинки можно скачать здесь.

Модераторы: Модераторы, Модераторы фильмов

Sonik Аватара пользователя
Модератор
Модератор

Раздал: 2.14 ТБ
Скачал: 1.57 ТБ
Ратио: 1.365
Сообщения: 447

Зарегистрирован: 13 сен 2017, 00:19
В кошельке: 6,366.00
Награды: 4
Путь к журналисту (1) Журналист (1) Богат как фараон (1) С Днем Рождения! (1)
Заслуженная репутация: 4
  • Постеры
Информация о фильме
Название: Курьер
Оригинальное название: The Courier
Год выхода: 2019
Жанр: Боевик, триллер, драма
Режиссер: Закари Адлер
В ролях: Ольга Куриленко, Гэри Олдман, Амит Шах, Дермот Малруни, Уильям Моузли, Алисия Агнесон, Крэйг Конуэй, Грег Орвис, Ли Чарльз, Джоэл Майкли, Ренарс Латковскис, Ти Хёрли, Гордон Александр, Калли Тейлор, Нил Чапелхоу, Майкл Фатогун, Джейми Саттертвейт, Аль Холланд, Крис Пирсон, Хэл Хиллман, Роберт Луис Медина

О фильме: Криминальный авторитет Эзекиль Маннингс намеревается убить Ника, единственного свидетеля, который готов давать показания против него в суде. Эзекиль нанимает таинственную женщину-курьера на мотоцикле, чтобы та, кроме прочего, неосознанно доставила бомбу с ядовитым газом, которая должна уничтожить Ника. Но после того, как курьер спасает его от верной смерти, этот неожиданный дуэт вынужден противостоять безжалостным наемным убийцам.



Страна: Великобритания, США
Студия: Rollercoaster Angel Productions, Signature Films, Lionsgate Films
Продолжительность: 01:39:03
Перевод: Дублированный | iTunes

Файл
Формат: MKV
Качество: WEB-DLRip-AVC
Видео: MPEG-4 AVC, 760x316, - 976 Кбит/с
Аудио: AAC-HE, 2 ch, - 76 Кбит/с
Субтитры: Русские, английские

Общее
Уникальный идентификатор : 91050885845842869673636908541358691771 (0x447FC343AC241A2F77770BF9F71CD5BB)
Полное имя : D:MOVIESKurer.2019.WEB-DLRip-AVC.ExKinoRay.mkv
Формат : Matroska
Версия формата : Version 4 / Version 2
Размер файла : 746 Мбайт
Продолжительность : 1 ч. 39 м.
Общий поток : 1051 Кбит/сек
Дата кодирования : UTC 2020-01-03 20:02:09
Программа кодирования : mkvmerge v35.0.0 ('All The Love In The World') 64-bit
Библиотека кодирования : libebml v1.3.9 + libmatroska v1.5.2

Видео
Идентификатор : 1
Формат : AVC
Формат/Информация : Advanced Video Codec
Профиль формата : High@L4.1
Параметр CABAC формата : Да
Параметр RefFrames формата : 12 кадров
Идентификатор кодека : V_MPEG4/ISO/AVC
Продолжительность : 1 ч. 39 м.
Битрейт : 976 Кбит/сек
Ширина : 760 пикселей
Высота : 316 пикселей
Соотношение сторон : 2,40:1
Режим частоты кадров : Постоянный
Частота кадров : 23,976 (24000/1001) кадра/сек
Цветовое пространство : YUV
Субдискретизация насыщенности : 4:2:0
Битовая глубина : 8 бит
Тип развёртки : Прогрессивная
Бит/(Пиксели*Кадры) : 0.170
Размер потока : 690 Мбайт (93%)
Библиотека кодирования : x264 core 152 r2851kMod ba24899
Настройки программы : cabac=1 / ref=12 / deblock=1:-3:-3 / analyse=0x3:0x133 / me=umh / subme=10 / psy=1 / fade_compensate=0.00 / psy_rd=1.00:0.10 / mixed_ref=1 / me_range=32 / chroma_me=1 / trellis=2 / 8x8dct=1 / cqm=0 / deadzone=21,11 / fast_pskip=0 / chroma_qp_offset=-3 / threads=6 / lookahead_threads=1 / sliced_threads=0 / nr=0 / decimate=0 / interlaced=0 / bluray_compat=0 / constrained_intra=0 / bframes=12 / b_pyramid=2 / b_adapt=2 / b_bias=0 / direct=3 / weightb=1 / open_gop=0 / weightp=2 / keyint=240 / keyint_min=23 / scenecut=40 / intra_refresh=0 / rc_lookahead=40 / rc=2pass / mbtree=1 / bitrate=976 / ratetol=1.0 / qcomp=0.60 / qpmin=0 / qpmax=69 / qpstep=4 / cplxblur=20.0 / qblur=0.5 / ip_ratio=1.40 / aq=3:1.00
Default : Да
Forced : Нет

Аудио
Идентификатор : 2
Формат : AAC
Формат/Информация : Advanced Audio Codec
Профиль формата : HE-AAC / LC
Идентификатор кодека : A_AAC
Продолжительность : 1 ч. 39 м.
Битрейт : 76,0 Кбит/сек
Каналы : 2 канала
Расположение каналов : Front: L R
Частота : 48,0 КГц / 24,0 КГц
Частота кадров : 23,438 кадра/сек (1024 SPF)
Метод сжатия : С потерями
Задержка видео : 31 мс.
Размер потока : 53,9 Мбайт (7%)
Default : Да
Forced : Нет

Текст #1
Идентификатор : 3
Формат : UTF-8
Идентификатор кодека : S_TEXT/UTF8
Идентификатор кодека/Информация : UTF-8 Plain Text
Продолжительность : 1 ч. 34 м.
Битрейт : 44 бит/сек
ElementCount : 665
Размер потока : 30,7 Кбайт (0%)
Заголовок : iTunes (ELEKTRI4KA.UNIONGANG)
Язык : Russian
Default : Нет
Forced : Нет

Текст #2
Идентификатор : 4
Формат : UTF-8
Идентификатор кодека : S_TEXT/UTF8
Идентификатор кодека/Информация : UTF-8 Plain Text
Продолжительность : 1 ч. 33 м.
Битрейт : 26 бит/сек
ElementCount : 666
Размер потока : 18,2 Кбайт (0%)
Язык : English
Default : Нет
Forced : Нет




Торрент взят с http://zerkalo-rutor.org/torrent/737757 ... ay-itunes/
  • Торрент
Автор: Sonik Хэш: ---
Добавлен: 05 янв 2020, 01:45 Приватный: Нет (DHT включён)
Статус: Проверен
Размер: 745.51 МБ (781 719 477 байт)
Изменил: Sonik (05 янв 2020, 01:45)
Скачали: 1271 (Раздающих: 0%)
Причина:
---
Здоровье: 100%
Сидеров: 114 Личеров: 7
Скорость раздачи: 0 байт/сек Скорость скачивания: 0 байт/сек
Последний сидер: 10 часов 36 минут назад Последний личер: 10 часов 36 минут назад
Для скачивания торрента необходимо зарегистрироваться или войти на трекер.

Вернуться в ГОРЯЧИЕ НОВИНКИ КИНО!


cron
Ресурс не предоставляет электронные версии произведений, а занимается лишь коллекционированием и каталогизацией ссылок, присылаемых и публикуемых на форуме нашими читателями. Если вы являетесь правообладателем какого-либо представленного материала и не желаете чтобы ссылка на него находилась в нашем каталоге, свяжитесь с нами и мы незамедлительно удалим её. Файлы для обмена на трекере предоставлены пользователями сайта, и администрация не несёт ответственности за их содержание. Просьба не заливать файлы, защищенные авторскими правами, а также файлы нелегального содержания!
cron