Чёрный и синий / Black and Blue [Боевик, триллер, драма, криминал, 2019] WEB-DL 1080p, Mvo [Tunes]

Все последние горячие новинки можно скачать здесь.

Модераторы: Модераторы, Модераторы фильмов

Sonik Аватара пользователя
Модератор
Модератор

Раздал: 2.14 ТБ
Скачал: 1.57 ТБ
Ратио: 1.365
Сообщения: 448

Зарегистрирован: 13 сен 2017, 00:19
В кошельке: 6,381.00
Награды: 4
Путь к журналисту (1) Журналист (1) Богат как фараон (1) С Днем Рождения! (1)
Заслуженная репутация: 4
  • Постеры
Информация о фильме
Название: Чёрный и синий
Оригинальное название: Black and Blue
Год выхода: 2019
Жанр: Боевик, триллер, драма, криминал
Режиссер: Деон Тейлор
В ролях: Майк Колтер, Фрэнк Грилло, Рейд Скотт, Наоми Харрис, Бо Напп, Тайриз Гибсон, Кеннет Кинт Брайан, Нафиса Уильямс, Майкл Пападжон, Нельсон Бонилья

О фильме: Камера закрепленная на теле полицейской-новобранца из Детройта фиксирует факты коррупционных связей местной полиции и криминальных банд. И теперь, чтобы уничтожить отснятый материал, на главную героиню устраивают масштабную облаву.



Страна: США
Студия: Hidden Empire Film Group, Royal Viking Entertainment, Screen Gems
Продолжительность: 01:47:55
Перевод: Профессиональный многоголосый

Файл
Кодек: h.264
Качество: WEB-DL 1080p | AMZN
Видео: MPEG-4 AVC, 1920x800, 9434 Кbit/s, 23.976 fps
Звук: Русский: 48 kHz, AC3, 2.0, 160 Kbps / Профессиональный многоголосый, iTunes
Английский: 48 kHz, E-AC3, 5.1, 640 Kbps
Субтитры: Русские (Full), украинские (Full), английские (full, SDH)

General
Unique ID : 339896161126112047239736997498619061318 (0xFFB59E958DAFF4C313907BD1FF466446)
Complete name : C:KINOBlack.and.Blue.2019.1080p.AMZN.WEB-DL.mkv
Format : Matroska
Format version : Version 4
File size : 7.72 GiB
Duration : 1 h 47 min
Overall bit rate : 10.2 Mb/s
Encoded date : UTC 2019-12-31 10:40:09
Writing application : mkvmerge v38.0.0 ('The Silent Type') 64-bit
Writing library : libebml v1.3.9 + libmatroska v1.5.2
Cover : Yes
Attachments : cover.png

Video
ID : 1
Format : AVC
Format/Info : Advanced Video Codec
Format profile : High@L4
Format settings : CABAC / 4 Ref Frames
Format settings, CABAC : Yes
Format settings, Reference frames : 4 frames
Codec ID : V_MPEG4/ISO/AVC
Duration : 1 h 47 min
Bit rate mode : Constant
Bit rate : 9 434 kb/s
Nominal bit rate : 10 000 kb/s
Width : 1 920 pixels
Height : 800 pixels
Display aspect ratio : 2.40:1
Frame rate mode : Constant
Frame rate : 23.976 (24000/1001) FPS
Color space : YUV
Chroma subsampling : 4:2:0
Bit depth : 8 bits
Scan type : Progressive
Bits/(Pixel*Frame) : 0.256
Stream size : 7.11 GiB (92%)
Title : WEB-DL.1080p.Amazon by Silverok
Default : Yes
Forced : No
Color range : Limited
Color primaries : BT.709
Transfer characteristics : BT.709
Matrix coefficients : BT.709

Audio #1
ID : 2
Format : AC-3
Format/Info : Audio Coding 3
Commercial name : Dolby Digital
Codec ID : A_AC3
Duration : 1 h 47 min
Bit rate mode : Constant
Bit rate : 160 kb/s
Channel(s) : 2 channels
Channel layout : L R
Sampling rate : 48.0 kHz
Frame rate : 31.250 FPS (1536 SPF)
Compression mode : Lossy
Stream size : 124 MiB (2%)
Title : Профессиональный многоголосый, iTunes
Language : Russian
Service kind : Complete Main
Default : Yes
Forced : No

Audio #2
ID : 3
Format : E-AC-3
Format/Info : Enhanced AC-3
Commercial name : Dolby Digital Plus
Codec ID : A_EAC3
Duration : 1 h 47 min
Bit rate mode : Constant
Bit rate : 640 kb/s
Channel(s) : 6 channels
Channel layout : L R C LFE Ls Rs
Sampling rate : 48.0 kHz
Frame rate : 31.250 FPS (1536 SPF)
Compression mode : Lossy
Stream size : 494 MiB (6%)
Language : English
Service kind : Complete Main
Default : No
Forced : No

Text #1
ID : 4
Format : UTF-8
Codec ID : S_TEXT/UTF8
Codec ID/Info : UTF-8 Plain Text
Duration : 1 h 47 min
Bit rate : 64 b/s
Count of elements : 1251
Stream size : 51.2 KiB (0%)
Title : Full
Language : Russian
Default : No
Forced : No

Text #2
ID : 5
Format : UTF-8
Codec ID : S_TEXT/UTF8
Codec ID/Info : UTF-8 Plain Text
Duration : 1 h 47 min
Bit rate : 67 b/s
Count of elements : 1263
Stream size : 53.3 KiB (0%)
Title : Full
Language : Ukrainian
Default : No
Forced : No

Text #3
ID : 6
Format : UTF-8
Codec ID : S_TEXT/UTF8
Codec ID/Info : UTF-8 Plain Text
Duration : 1 h 45 min
Bit rate : 55 b/s
Count of elements : 1571
Stream size : 42.6 KiB (0%)
Title : Full
Language : English
Default : No
Forced : No

Text #4
ID : 7
Format : UTF-8
Codec ID : S_TEXT/UTF8
Codec ID/Info : UTF-8 Plain Text
Duration : 1 h 47 min
Bit rate : 63 b/s
Count of elements : 1941
Stream size : 49.7 KiB (0%)
Title : SDH
Language : English
Default : No
Forced : No


Торрент взят с http://zerkalo-rutor.org/torrent/737284 ... 80p-tunes/
  • Торрент
Автор: Sonik Хэш: ---
Добавлен: 01 янв 2020, 03:26 Приватный: Нет (DHT включён)
Статус: Проверен
Размер: 7.72 ГБ (8 286 055 945 байт)
Изменил: Sonik (01 янв 2020, 03:26)
Скачали: 2368 (Раздающих: 0%)
Причина:
---
Здоровье: 100%
Сидеров: 939 Личеров: 405
Скорость раздачи: 0 байт/сек Скорость скачивания: 0 байт/сек
Последний сидер: 15 часов 5 минут 19 секунд назад Последний личер: 15 часов 5 минут 19 секунд назад
Для скачивания торрента необходимо зарегистрироваться или войти на трекер.

Вернуться в ГОРЯЧИЕ НОВИНКИ КИНО!


Ресурс не предоставляет электронные версии произведений, а занимается лишь коллекционированием и каталогизацией ссылок, присылаемых и публикуемых на форуме нашими читателями. Если вы являетесь правообладателем какого-либо представленного материала и не желаете чтобы ссылка на него находилась в нашем каталоге, свяжитесь с нами и мы незамедлительно удалим её. Файлы для обмена на трекере предоставлены пользователями сайта, и администрация не несёт ответственности за их содержание. Просьба не заливать файлы, защищенные авторскими правами, а также файлы нелегального содержания!
cron