Стриптизёрши / Hustlers [Комедия, 2019] WEB-DL 1080p, Dub [iTunes]

Все последние горячие новинки можно скачать здесь.

Модераторы: Модераторы, Модераторы фильмов

Sonik Аватара пользователя
Модератор
Модератор

Раздал: 2.03 ТБ
Скачал: 1.47 ТБ
Ратио: 1.385
Сообщения: 358

Зарегистрирован: 13 сен 2017, 00:19
В кошельке: 5,835.00
Награды: 4
Путь к журналисту (1) Журналист (1) Богат как фараон (1) С Днем Рождения! (1)
Заслуженная репутация: 4
  • Постеры
Информация о фильме
Название: Стриптизёрши
Оригинальное название: Hustlers
Год выхода: 2019
Жанр: Комедия
Режиссер: Лорин Скафария
В ролях: Констанс Ву, Дженнифер Лопес, Джулия Стайлз, Кеке Палмер, Лили Рейнхарт, Карди Би, Лиззо, Мерседес Рул, Мадлен Брюэр, Метте Таули, Трейс Лисетт, Ашер, Вэй Чинг Хо, Эмма Батис, Ванесса Аспильяга, Биг Джей Оакерсон, Фрэнк Уэйли, Девин Рэтрей, Стивен Бойер, Пол А Нилсен, Майк Келлер, Джон Глейсер

О фильме: Они — яркие, сексуальные и очень амбициозные. Они — танцовщицы элитного стриптиз-клуба, клиенты которого — известные финансисты с Уолл-Стрит. Но когда банковский кризис в одночасье превращает накопления девушек в пыль, подруги по несчастью жаждут отомстить. Они разрабатывают дерзкий план как вернуть потерянные деньги, чтобы снова вести роскошную гламурную жизнь, и отплатить биржевым гениям, оставив их без гроша.



Страна: США
Студия: Annapurna Pictures, Gloria Sanchez Productions, Nuyorican Productions, STX Films
Продолжительность: 01:49:40
Перевод: • Профессиональный (полное дублирование) | iTunes

Файл
Качество: WEB-DL 1080p
Формат: NKV
Кодек: MPEG-4 AVC
Видео: 1908x792 (2,40:1), 23,976 fps, MPEG-4 AVC ~ 4560 Kbps avg, 0.126 bit/pixel
Аудио: AC3, 48 kHz, 6 ch, ~384.00 kbps avg | русский | iTunes

Общее
Уникальный идентификатор : 264668881485546823880336319011211057058 (0xC71D5F56EB9B4E9C307CE8FD209217A2)
Полное имя : G:HUSTLERS (2019) WEB-DL 1080p).mkv
Формат : Matroska
Версия формата : Version 4 / Version 2
Размер файла : 3,79 Гбайт
Продолжительность : 1 ч. 49 м.
Общий поток : 4946 Кбит/сек
Название фильма : HUSTLERS (2019) WEB-DL 1080p-KAZTORKA
Дата кодирования : UTC 2019-11-25 20:26:50
Программа кодирования : mkvmerge v38.0.0 ('The Silent Type') 64-bit
Библиотека кодирования : libebml v1.3.9 + libmatroska v1.5.2
Обложка : Yes
Attachments : cover.jpg

Видео
Идентификатор : 1
Формат : AVC
Формат/Информация : Advanced Video Codec
Профиль формата : High@L4
Настройки формата : CABAC / 5 Ref Frames
Параметр CABAC формата : Да
Параметр RefFrames формата : 5 кадров
Идентификатор кодека : V_MPEG4/ISO/AVC
Продолжительность : 1 ч. 49 м.
Битрейт : 4560 Кбит/сек
Ширина : 1908 пикселей
Высота : 792 пикселя
Соотношение сторон : 2,40:1
Режим частоты кадров : Постоянный
Частота кадров : 23,976 (24000/1001) кадра/сек
Цветовое пространство : YUV
Субдискретизация насыщенности : 4:2:0
Битовая глубина : 8 бит
Тип развёртки : Прогрессивная
Бит/(Пиксели*Кадры) : 0.126
Размер потока : 3,49 Гбайт (92%)
Заголовок : HUSTLERS (2019) WEB-DL 1080p-KAZTORKA
Язык : English
Default : Да
Forced : Нет
Цветовой диапазон : Limited
Основные цвета : BT.709
Характеристики трансфера : BT.709
Коэффициенты матрицы : BT.709

Аудио
Идентификатор : 2
Формат : AC-3
Формат/Информация : Audio Coding 3
Идентификатор кодека : A_AC3
Продолжительность : 1 ч. 49 м.
Вид битрейта : Постоянный
Битрейт : 384 Кбит/сек
Каналы : 6 каналов
Расположение каналов : Front: L C R, Side: L R, LFE
Частота : 48,0 КГц
Частота кадров : 31,250 кадров/сек (1536 SPF)
Битовая глубина : 16 бит
Метод сжатия : С потерями
Задержка видео : -42 мс.
Размер потока : 301 Мбайт (8%)
Заголовок : iTunes | HUSTLERS (2019) WEB-DL 1080p-KAZTORKA
Язык : Russian
Default : Да
Forced : Нет

Меню
00:00:00.000 : en:1
00:10:58.000 : en:2
00:20:59.000 : en:3
00:30:20.000 : en:4
00:37:34.000 : en:5
00:48:45.000 : en:6
01:00:12.000 : en:7
01:11:23.000 : en:8
01:20:01.000 : en:9
01:31:58.000 : en:10
01:42:04.000 : en:11
  • Торрент
Автор: Sonik Хэш: ---
Добавлен: 26 ноя 2019, 17:31 Приватный: Нет (DHT включён)
Статус: Проверен
Размер: 3.79 ГБ (4 067 998 503 байт)
Изменил: Sonik (26 ноя 2019, 17:32)
Скачали: 4 (Раздающих: 100%)
Причина:
---
Здоровье: 100%
Сидеров: 4 Личеров: 0
Скорость раздачи: 7.94 КБ/сек Скорость скачивания: 0 байт/сек
Последний сидер: 11 минут 52 секунды назад Последний личер: 1 день 17 часов 34 минуты 36 секунд назад
Для скачивания торрента необходимо зарегистрироваться или войти на трекер.

Вернуться в ГОРЯЧИЕ НОВИНКИ КИНО!


cron
Ресурс не предоставляет электронные версии произведений, а занимается лишь коллекционированием и каталогизацией ссылок, присылаемых и публикуемых на форуме нашими читателями. Если вы являетесь правообладателем какого-либо представленного материала и не желаете чтобы ссылка на него находилась в нашем каталоге, свяжитесь с нами и мы незамедлительно удалим её. Файлы для обмена на трекере предоставлены пользователями сайта, и администрация не несёт ответственности за их содержание. Просьба не заливать файлы, защищенные авторскими правами, а также файлы нелегального содержания!
cron