Домино / Domino [Триллер, криминал, 2019] WEB-DL 1080p, Mvo

Все последние горячие новинки можно скачать здесь.

Модераторы: Модераторы, Модераторы фильмов

Sonik
Модератор
Модератор

Раздал: 1.47 ТБ
Скачал: 1.08 ТБ
Ратио: 1.370
Сообщения: 285

Зарегистрирован: 13 сен 2017, 00:19
В кошельке: 4,296.00
Награды: 3
Путь к журналисту (1) Журналист (1) Богат как фараон (1)
Заслуженная репутация: 4
  • Постеры
Информация о фильме
Название: Домино
Оригинальное название: Domino
Год выхода: 2019
Жанр: Триллер, криминал
Режиссер: Брайан Де Пальма
В ролях: Николай Костер-Валдау, Кэрис ван Хаутен, Гай Пирс, Сёрен Маллинг, Паприка Стеэн, Николас Бро, Томас В. Габриэльссон, Якоб Ульрик Ломанн, Элла-Джун Генрард, Эрик Эбони

О фильме: Офицер полиции Копенгагена жаждет отомстить за смерть напарника от руки некоего Имрана. Охоту на убийцу он ведёт в компании с любовницей погибшего коллеги. Однако оба они становятся жертвами агента ЦРУ, подставившего Имрана.



Страна: Дания, Франция, Италия, Бельгия, Нидерланды
Студия: Backup Media, Saban Films, Schønne Film
Продолжительность: 01:29:16
Перевод: Профессиональный (многоголосый, закадровый) | HDrezka Studio

Файл
Качество: WEB-DL 1080p | AMZN
Видео: AVC/H.264, 1920x1040, ~8863 Кbps, 23,976 fps
Звук: Аудио 1: AC3, 2 ch, 192 Kbps - Русский
Аудио 2: E-AC3, 6ch, 640 Kbps - Английский
Субтитры: английские (полные, SDH)

Общее
Уникальный идентификатор : 240316837634288931322886055734786670134 (0xB4CB56E137719CC2B2482BF726D03E36)
Полное имя : Domino.2019.WEB-DL.1080p.mkv
Формат : Matroska
Версия формата : Version 4
Размер файла : 6,05 Гбайт
Продолжительность : 1 ч. 29 м.
Общий поток : 9698 Кбит/сек
Дата кодирования : UTC 2019-06-06 10:34:17
Программа кодирования : mkvmerge v23.0.0 ('The Bride Said No') 64-bit
Библиотека кодирования : libebml v1.3.6 + libmatroska v1.4.9

Видео
Идентификатор : 1
Формат : AVC
Формат/Информация : Advanced Video Codec
Профиль формата : High@L4
Настройки формата : CABAC / 4 Ref Frames
Параметр CABAC формата : Да
Параметр RefFrames формата : 4 кадра
Идентификатор кодека : V_MPEG4/ISO/AVC
Продолжительность : 1 ч. 29 м.
Вид битрейта : Постоянный
Битрейт : 8863 Кбит/сек
Номинальный битрейт : 10000 Кбит/сек
Ширина : 1920 пикселей
Высота : 1040 пикселей
Соотношение сторон : 1,85:1
Режим частоты кадров : Постоянный
Частота кадров : 23,976 (24000/1001) кадра/сек
Цветовое пространство : YUV
Субдискретизация насыщенности : 4:2:0
Битовая глубина : 8 бит
Тип развёртки : Прогрессивная
Бит/(Пиксели*Кадры) : 0.185
Размер потока : 5,53 Гбайт (91%)
Язык : English
Default : Да
Forced : Нет
Цветовой диапазон : Limited
Основные цвета : BT.709
Характеристики трансфера : BT.709
Коэффициенты матрицы : BT.709

Аудио #1
Идентификатор : 2
Формат : AC-3
Формат/Информация : Audio Coding 3
Коммерческое название : Dolby Digital
Идентификатор кодека : A_AC3
Продолжительность : 1 ч. 29 м.
Вид битрейта : Постоянный
Битрейт : 192 Кбит/сек
Каналы : 2 канала
ChannelLayout : L R
Частота : 48,0 КГц
Частота кадров : 31,250 кадров/сек (1536 SPF)
Битовая глубина : 16 бит
Метод сжатия : С потерями
Размер потока : 123 Мбайт (2%)
Заголовок : MVO | HDRezka Studio
Язык : Russian
ServiceKind : Complete Main
Default : Да
Forced : Нет

Аудио #2
Идентификатор : 3
Формат : E-AC-3
Формат/Информация : Enhanced AC-3
Коммерческое название : Dolby Digital Plus
Идентификатор кодека : A_EAC3
Продолжительность : 1 ч. 29 м.
Вид битрейта : Постоянный
Битрейт : 640 Кбит/сек
Каналы : 6 каналов
ChannelLayout : L R C LFE Ls Rs
Частота : 48,0 КГц
Частота кадров : 31,250 кадров/сек (1536 SPF)
Метод сжатия : С потерями
Размер потока : 409 Мбайт (7%)
Язык : English
ServiceKind : Complete Main
Default : Нет
Forced : Нет

Текст #1
Идентификатор : 4
Формат : UTF-8
Идентификатор кодека : S_TEXT/UTF8
Идентификатор кодека/Информация : UTF-8 Plain Text
Продолжительность : 1 ч. 20 м.
Битрейт : 34 бит/сек
ElementCount : 697
Размер потока : 20,7 Кбайт (0%)
Заголовок : Full
Язык : English
Default : Нет
Forced : Нет

Текст #2
Идентификатор : 5
Формат : UTF-8
Идентификатор кодека : S_TEXT/UTF8
Идентификатор кодека/Информация : UTF-8 Plain Text
Продолжительность : 1 ч. 22 м.
Битрейт : 44 бит/сек
ElementCount : 962
Размер потока : 26,7 Кбайт (0%)
Заголовок : SDH
Язык : English
Default : Нет
Forced : Нет

  • Торрент
Автор: Sonik Хэш: ---
Добавлен: 07 июн 2019, 00:59 Приватный: Нет (DHT включён)
Статус: Проверен
Размер: 6.05 ГБ (6 492 212 529 байт)
Изменил: Sonik (07 июн 2019, 01:00)
Скачали: 1797 (Раздающих: 50%)
Причина:
---
Здоровье: 100%
Сидеров: 235 Личеров: 43
Скорость раздачи: 0 байт/сек Скорость скачивания: 0 байт/сек
Последний сидер: 2 часа 32 минуты 51 секунду назад Последний личер: 3 часа 2 минуты 45 секунд назад
Для скачивания торрента необходимо зарегистрироваться или войти на трекер.

Вернуться в ГОРЯЧИЕ НОВИНКИ КИНО!


cron
Ресурс не предоставляет электронные версии произведений, а занимается лишь коллекционированием и каталогизацией ссылок, присылаемых и публикуемых на форуме нашими читателями. Если вы являетесь правообладателем какого-либо представленного материала и не желаете чтобы ссылка на него находилась в нашем каталоге, свяжитесь с нами и мы незамедлительно удалим её. Файлы для обмена на трекере предоставлены пользователями сайта, и администрация не несёт ответственности за их содержание. Просьба не заливать файлы, защищенные авторскими правами, а также файлы нелегального содержания!
cron