Призрак в доспехах | Ghost in the Shell / Koukaku Kidoutai (1995) BDRip 1080p от NNNB | D, P2, A, L1

Уникальная японская анимация со специфической рисовкой и кругом рассматриваемых тем, которая предназначена для самых разных категорий населения.

Модераторы: Модераторы, Модераторы фильмов

PREDATOR-DJ Аватара пользователя
Администратор
Администратор

Раздал: 37.27 ТБ
Скачал: 3.89 ТБ
Ратио: 9.587
Сообщения: 1876

Зарегистрирован: 15 авг 2016, 12:12
В кошельке: 7,840.00
Банк: 77,768.50
Откуда: Зазеркалье
Награды: 8
Путь к журналисту (1) Админ (1) За заслуги перед форумом (1) Спасибо тебе! (1)
Админcтво в Battlefield (1) В обмен на рекламный банер (1) Голосовой чат Mumble (1) Раздал 1 Tb (1)
Заслуженная репутация: 20
НовичокНовичокНовичокНовичокНовичок

  • Постеры
Русское название: Призрак в доспехах
Оригинальное название: Ghost in the Shell / Koukaku Kidoutai
Год выхода: 1995
Жанр: аниме, мультфильм, фантастика, фэнтези, боевик, триллер
Режиссер: Мамору Осии
Выпущено: Япония
Продолжительность: 01:59:06
Перевод: Дублированный, Профессиональный (Двухголосый, закадровый), Авторский (Одноголосый, закадровый), Любительский (Одноголосый, закадровый)
Роли озвучивали: Ацуко Танака, Акио Ютсука, Коити Ямадэра, Ютака Накано, Тамио Оки, Тэссё Гэнда, Намаки Масакадзу, Масато Яманоути, Синдзи Огава,Мицуру Миямото


2029 год. Границы между государствами окончательно рухнули, благодаря повсеместно распространившимся компьютерным сетям и кибер-технологиям. Когда давно разыскиваемый хакер по кличке «Кукловод» начинает вмешиваться в политику, «9-й Отдел» Министерства Общественной безопасности, группа кибернетически модифицированных полицейских, получает задание найти и остановить хакера. Но в ходе расследования возникает вопрос: кто же такой «Кукловод» в том мире где грань между человеком и машиной практически стерта?..



Качество: BDRip 1080p (исходник Blu-Ray Remux)
Формат: MKV
Видео: 1856x1004, 12065 Кбит/сек, 23,976 кадр/сек, AVC, x264, High@L4.1, 1.85:1, 0.270 Бит/[Пиксели*Кадры]
Аудио 1: AC-3, 192 Кбит/сек, 2 канала(ов), 48,0 КГц - Дублированный, ОРТ / Русский
Аудио 2: AC-3, 192 Кбит/сек, 2 канала(ов), 48,0 КГц - Двухголосый закадровый, П. Гланц и И. Королева / Русский
Аудио 3: AC-3, 192 Кбит/сек, 2 канала(ов), 48,0 КГц - Двухголосый закадровый, Tycoon-Studio / Русский
Аудио 4: AC-3, 224 Кбит/сек, 2 канала(ов), 48,0 КГц - Одноголосый закадровый, Гаврилов / Русский
Аудио 5: AC-3, 192 Кбит/сек, 2 канала(ов), 48,0 КГц - Одноголосый закадровый, Гланц / Русский
Аудио 6: AC-3, 192 Кбит/сек, 2 канала(ов), 48,0 КГц - Одноголосый закадровый, Лапшин / Русский
Аудио 7: AC-3, 192 Кбит/сек, 2 канала(ов), 48,0 КГц - Оригинал / Японский
Субтитры: Русские | Полные, Английские | Полные
Форсированные субтитры: Нет
Чаптеры (Главы): Есть

Format : Matroska
Format version : Version 2
File size : 7.74 GiB
Duration : 1 h 22 min
Overall bit rate : 13.4 Mb/s
Movie name : Ghost in the Shell.(1995).BDRip.1080p.[envy]
Encoded date : UTC 2016-11-16 15:10:11
Writing application : mkvmerge v5.8.0 ('No Sleep / Pillow') built on Sep 2 2012 15:37:04
Writing library : libebml v1.2.3 + libmatroska v1.3.0

Video
ID : 1
Format : AVC
Format/Info : Advanced Video Codec
Format profile : High@L4.1
Format settings, CABAC : Yes
Format settings, ReFrames : 4 frames
Codec ID : V_MPEG4/ISO/AVC
Duration : 1 h 22 min
Bit rate : 12.1 Mb/s
Width : 1 856 pixels
Height : 1 004 pixels
Display aspect ratio : 1.85:1
Frame rate mode : Constant
Frame rate : 23.976 (24000/1001) FPS
Color space : YUV
Chroma subsampling : 4:2:0
Bit depth : 8 bits
Scan type : Progressive
Bits/(Pixel*Frame) : 0.270
Stream size : 6.79 GiB (88%)
Title : Ghost in the Shell.(1995).BDRip.1080p.[envy]
Writing library : x264 core 148 r2721 72d53ab
Encoding settings : cabac=1 / ref=4 / deblock=1:-1:-1 / analyse=0x3:0x113 / me=umh / subme=11 / psy=1 / psy_rd=1.00:0.00 / mixed_ref=1 / me_range=32 / chroma_me=1 / trellis=2 / 8x8dct=1 / cqm=0 / deadzone=21,11 / fast_pskip=0 / chroma_qp_offset=-2 / threads=12 / lookahead_threads=1 / sliced_threads=0 / nr=0 / decimate=1 / interlaced=0 / bluray_compat=0 / constrained_intra=0 / bframes=5 / b_pyramid=2 / b_adapt=2 / b_bias=0 / direct=3 / weightb=1 / open_gop=0 / weightp=2 / keyint=240 / keyint_min=23 / scenecut=40 / intra_refresh=0 / rc=2pass / mbtree=0 / bitrate=12065 / ratetol=2.0 / qcomp=0.60 / qpmin=0 / qpmax=69 / qpstep=4 / cplxblur=20.0 / qblur=0.5 / ip_ratio=1.40 / pb_ratio=1.30 / aq=2:0.90
Language : Japanese
Default : Yes
Forced : No

Audio #1
ID : 2
Format : AC-3
Format/Info : Audio Coding 3
Mode extension : CM (complete main)
Format settings, Endianness : Big
Codec ID : A_AC3
Duration : 1 h 22 min
Bit rate mode : Constant
Bit rate : 192 kb/s
Channel(s) : 2 channels
Channel positions : Front: L R
Sampling rate : 48.0 kHz
Frame rate : 31.250 FPS (1536 spf)
Compression mode : Lossy
Stream size : 114 MiB (1%)
Title : DUB ОРТ
Language : Russian
Default : Yes
Forced : No

Audio #2
ID : 3
Format : AC-3
Format/Info : Audio Coding 3
Mode extension : CM (complete main)
Format settings, Endianness : Big
Codec ID : A_AC3
Duration : 1 h 22 min
Bit rate mode : Constant
Bit rate : 192 kb/s
Channel(s) : 2 channels
Channel positions : Front: L R
Sampling rate : 48.0 kHz
Frame rate : 31.250 FPS (1536 spf)
Compression mode : Lossy
Stream size : 114 MiB (1%)
Title : DVO П. Гланц и И. Королева
Language : Russian
Default : No
Forced : No

Audio #3
ID : 4
Format : AC-3
Format/Info : Audio Coding 3
Mode extension : CM (complete main)
Format settings, Endianness : Big
Codec ID : A_AC3
Duration : 1 h 22 min
Bit rate mode : Constant
Bit rate : 192 kb/s
Channel(s) : 2 channels
Channel positions : Front: L R
Sampling rate : 48.0 kHz
Frame rate : 31.250 FPS (1536 spf)
Compression mode : Lossy
Stream size : 114 MiB (1%)
Title : DVO Tycoon-Studio
Language : Russian
Default : No
Forced : No

Audio #4
ID : 5
Format : AC-3
Format/Info : Audio Coding 3
Mode extension : CM (complete main)
Format settings, Endianness : Big
Codec ID : A_AC3
Duration : 1 h 22 min
Bit rate mode : Constant
Bit rate : 224 kb/s
Channel(s) : 2 channels
Channel positions : Front: L R
Sampling rate : 48.0 kHz
Frame rate : 31.250 FPS (1536 spf)
Compression mode : Lossy
Stream size : 132 MiB (2%)
Title : AVO Гаврилов
Language : Russian
Default : No
Forced : No

Audio #5
ID : 6
Format : AC-3
Format/Info : Audio Coding 3
Mode extension : CM (complete main)
Format settings, Endianness : Big
Codec ID : A_AC3
Duration : 1 h 22 min
Bit rate mode : Constant
Bit rate : 192 kb/s
Channel(s) : 2 channels
Channel positions : Front: L R
Sampling rate : 48.0 kHz
Frame rate : 31.250 FPS (1536 spf)
Compression mode : Lossy
Stream size : 114 MiB (1%)
Title : AVO Гланц
Language : Russian
Default : No
Forced : No

Audio #6
ID : 7
Format : AC-3
Format/Info : Audio Coding 3
Mode extension : CM (complete main)
Format settings, Endianness : Big
Codec ID : A_AC3
Duration : 1 h 22 min
Bit rate mode : Constant
Bit rate : 192 kb/s
Channel(s) : 2 channels
Channel positions : Front: L R
Sampling rate : 48.0 kHz
Frame rate : 31.250 FPS (1536 spf)
Compression mode : Lossy
Stream size : 114 MiB (1%)
Title : AVO Лапшин
Language : Russian
Default : No
Forced : No

Audio #7
ID : 8
Format : AC-3
Format/Info : Audio Coding 3
Mode extension : CM (complete main)
Format settings, Endianness : Big
Codec ID : A_AC3
Duration : 1 h 22 min
Bit rate mode : Constant
Bit rate : 192 kb/s
Channel(s) : 2 channels
Channel positions : Front: L R
Sampling rate : 48.0 kHz
Frame rate : 31.250 FPS (1536 spf)
Compression mode : Lossy
Stream size : 114 MiB (1%)
Title : JPN
Language : Japanese
Default : No
Forced : No

Text #1
ID : 9
Format : UTF-8
Codec ID : S_TEXT/UTF8
Codec ID/Info : UTF-8 Plain Text
Title : Rus full
Language : Russian
Default : No
Forced : No

Text #2
ID : 10
Format : UTF-8
Codec ID : S_TEXT/UTF8
Codec ID/Info : UTF-8 Plain Text
Title : Eng full
Language : English
Default : No
Forced : No

Menu
00:00:00.000 : :00:00:00.000
00:04:06.163 : :00:04:06.163
00:08:24.754 : :00:08:24.754
00:13:15.169 : :00:13:15.169
00:24:17.706 : :00:24:17.706
00:26:05.063 : :00:26:05.063
00:27:40.158 : :00:27:40.158
00:33:02.981 : :00:33:02.981
00:36:21.513 : :00:36:21.513
00:45:32.271 : :00:45:32.271
00:53:59.486 : :00:53:59.486
00:59:40.410 : :00:59:40.410
01:06:24.355 : :01:06:24.355
01:13:58.434 : :01:13:58.434
01:17:31.480 : :01:17:31.480
Мы в соц сетях:
Посмотреть товар в профиле пользователя

Нажмите на изображение, чтобы увидеть в полный размер  
1 шт.
Нажмите на изображение, чтобы увидеть в полный размер  
1 шт.
Нажмите на изображение, чтобы увидеть в полный размер  
1 шт.
Нажмите на изображение, чтобы увидеть в полный размер  
1 шт.
  • Торрент
Автор: PREDATOR-DJ Хэш: ---
Добавлен: 18 ноя 2016, 22:44 Приватный: Нет (DHT включён)
Статус: Проверен
Размер: 7.74 ГБ (8 314 601 586 байт)
Изменил: PREDATOR-DJ (18 ноя 2016, 22:55)
Скачали: 4799 (Раздающих: 100%)
Причина: http://rus-film.org/torrent/534435/prizrak-v-dospehah_ghost-in-the-shell_koukaku-kidoutai-1995-bdrip-1080p-ot-nnnb-d-p2-a-l1/
Здоровье: 100%
Сидеров: 393 Личеров: 70
Скорость раздачи: 0 байт/сек Скорость скачивания: 0 байт/сек
Последний сидер: 2 минуты 44 секунды назад Последний личер: 20 дней 20 часов 57 минут 21 секунду назад
Для скачивания торрента необходимо зарегистрироваться или войти на трекер.

Вернуться в Мультфильмы | Анимэ


Ресурс не предоставляет электронные версии произведений, а занимается лишь коллекционированием и каталогизацией ссылок, присылаемых и публикуемых на форуме нашими читателями. Если вы являетесь правообладателем какого-либо представленного материала и не желаете чтобы ссылка на него находилась в нашем каталоге, свяжитесь с нами и мы незамедлительно удалим её. Файлы для обмена на трекере предоставлены пользователями сайта, и администрация не несёт ответственности за их содержание. Просьба не заливать файлы, защищенные авторскими правами, а также файлы нелегального содержания!
cron