Ben Granfelt - Another Day (2017) [FLAC|Lossless]

Модераторы: Модераторы, Модератор музыки

PREDATOR-DJ Аватара пользователя
Администратор
Администратор

Раздал: 40.41 ТБ
Скачал: 3.9 ТБ
Ратио: 10.363
Сообщения: 1951

Зарегистрирован: 15 авг 2016, 12:12
В кошельке: 8,589.00
Банк: 166,646.50
Откуда: Зазеркалье
Награды: 8
Путь к журналисту (1) Админ (1) За заслуги перед форумом (1) Спасибо тебе! (1)
Админcтво в Battlefield (1) В обмен на рекламный банер (1) Голосовой чат Mumble (1) Раздал 1 Tb (1)
Заслуженная репутация: 20
НовичокНовичокНовичокНовичокНовичок

  • Постеры
Год: 2016
Жанр: Blues, Other Rock, Blues Rock
Издание: Tuohi Records
Источник: ссылка
Продолжительность: 00:41:00

Кодек: FLAC
Битрейт: Lossless|WEB-DL
Тип рипа: tracks + .cue

Треклист:
01. Hangman's Tree (3:52)
02. Another Day (5:33)
03. Wayward Child (5:25)
04. Shine Like The Sun Over Me (3:58)
05. Endless (1:36)
06. Open Road, Open Book (5:41)
07. Heart On Your Sleeve (4:20)
08. Rocking The Boat (3:12)
09. Sweet Love (3:47)
10. You Are What You Is (3:31)
Код: Выделить всё
foobar2000 1.3.14 / Dynamic Range Meter 1.1.1
log date: 2017-01-31 12:24:22

--------------------------------------------------------------------------------
Analyzed: Ben Granfelt / Another Day
--------------------------------------------------------------------------------

DR         Peak         RMS     Duration Track
--------------------------------------------------------------------------------
DR6       -6.91 dB   -13.93 dB      3:53 01-Hangman's Tree
DR6       -6.91 dB   -13.83 dB      5:33 02-Another Day
DR6       -6.92 dB   -14.07 dB      5:25 03-Wayward Child
DR6       -6.92 dB   -14.54 dB      3:59 04-Shine Like The Sun Over Me
DR11      -7.83 dB   -22.65 dB      1:37 05-Endless
DR6       -6.96 dB   -14.18 dB      5:42 06-Open Road, Open Book
DR6       -6.92 dB   -14.60 dB      4:20 07-Heart On Your Sleeve
DR6       -6.92 dB   -13.99 dB      3:12 08-Rocking The Boat
DR7       -6.92 dB   -14.88 dB      3:47 09-Sweet Love
DR6       -7.69 dB   -14.94 dB      3:31 10-You Are What You Is
--------------------------------------------------------------------------------

Number of tracks:  10
Official DR value: DR7

Samplerate:        44100 Hz
Channels:          2
Bits per sample:   16
Bitrate:           913 kbps
Codec:             FLAC
================================================================================

Код: Выделить всё
REM GENRE Blues/Rock
REM DATE 2017
REM COMMENT "CUE Corrector v. 7.6.3 / b. 598 (May 12, 2016)"
REM DISCNUMBER 1
REM TOTALDISCS 1
PERFORMER "Ben Granfelt"
TITLE "Another Day"
FILE "01 - Hangman's Tree.flac" WAVE
  TRACK 1 AUDIO
    TITLE "Hangman's Tree"
    PERFORMER "Ben Granfelt"
    INDEX 01 00:00:00
FILE "02 - Another Day.flac" WAVE
  TRACK 2 AUDIO
    TITLE "Another Day"
    PERFORMER "Ben Granfelt"
    INDEX 01 00:00:00
FILE "03 - Wayward Child.flac" WAVE
  TRACK 3 AUDIO
    TITLE "Wayward Child"
    PERFORMER "Ben Granfelt"
    INDEX 01 00:00:00
FILE "04 - Shine Like The Sun Over Me.flac" WAVE
  TRACK 4 AUDIO
    TITLE "Shine Like The Sun Over Me"
    PERFORMER "Ben Granfelt"
    INDEX 01 00:00:00
FILE "05 - Endless.flac" WAVE
  TRACK 5 AUDIO
    TITLE Endless
    PERFORMER "Ben Granfelt"
    INDEX 01 00:00:00
FILE "06 - Open Road, Open Book.flac" WAVE
  TRACK 6 AUDIO
    TITLE "Open Road, Open Book"
    PERFORMER "Ben Granfelt"
    INDEX 01 00:00:00
FILE "07 - Heart On Your Sleeve.flac" WAVE
  TRACK 7 AUDIO
    TITLE "Heart On Your Sleeve"
    PERFORMER "Ben Granfelt"
    INDEX 01 00:00:00
FILE "08 - Rocking The Boat.flac" WAVE
  TRACK 8 AUDIO
    TITLE "Rocking The Boat"
    PERFORMER "Ben Granfelt"
    INDEX 01 00:00:00
FILE "09 - Sweet Love.flac" WAVE
  TRACK 9 AUDIO
    TITLE "Sweet Love"
    PERFORMER "Ben Granfelt"
    INDEX 01 00:00:00
FILE "10 - You Are What You Is.flac" WAVE
  TRACK 10 AUDIO
    TITLE "You Are What You Is"
    PERFORMER "Ben Granfelt"
    INDEX 01 00:00:00
Код: Выделить всё
-----------------------

DON'T MODIFY THIS FILE

-----------------------

PERFORMER: auCDtect Task Manager, ver. 1.6.0 RC1 build 1.6.0.1
Copyright (c) 2008-2010 y-soft. All rights reserved
[url=http://y-soft.org]http://y-soft.org[/url]

ANALYZER: auCDtect: CD records authenticity detector, version 0.8.2
Copyright (c) 2004 Oleg Berngardt. All rights reserved.
Copyright (c) 2004 Alexander Djourik. All rights reserved.

FILE: 10 - You Are What You Is.flac
  Size: 24379687 Hash: 5EACD75B8C15AD239CA2359210EB63D3 Accuracy: -m0
  Conclusion: CDDA 99%
  Signature: 5C008DBB1784AA4E34F8B208D977E4CE076F1933
FILE: 09 - Sweet Love.flac
  Size: 24508442 Hash: FD84E084F0BB894E662E4216EF686570 Accuracy: -m0
  Conclusion: CDDA 100%
  Signature: 85DA0BA89B34193D959F2ED8FBACF42BF4EF13B1
FILE: 08 - Rocking The Boat.flac
  Size: 22704638 Hash: 7DE20FD532DC68AA45ED2AE0D001A2BB Accuracy: -m0
  Conclusion: CDDA 100%
  Signature: AE406A433531455C4EB036547CFE3D9B2888D63A
FILE: 07 - Heart On Your Sleeve.flac
  Size: 29639360 Hash: A4B0898A99642133BD77DDD8425250FD Accuracy: -m0
  Conclusion: CDDA 100%
  Signature: 2C8BD8F96EBA8738E741248AD60042E29DCF2FFA
FILE: 06 - Open Road, Open Book.flac
  Size: 38671474 Hash: 708613A0081392FC125E0E89CEB75A44 Accuracy: -m0
  Conclusion: CDDA 100%
  Signature: BDD006840EE450BAC0CFB22E809BE2F943A982F0
FILE: 05 - Endless.flac
  Size: 6446568 Hash: 3688AF274421FF0092AFDC56FDE7D7A3 Accuracy: -m0
  Conclusion: CDDA 76%
  Signature: 4D235B7E3ED43C04FE31FDB590B42CB1B8FB16B3
FILE: 04 - Shine Like The Sun Over Me.flac
  Size: 26535188 Hash: C5CFBB32C74D40ED086973A8CBE88E91 Accuracy: -m0
  Conclusion: CDDA 100%
  Signature: DADCD958E17A386B63783108CF99B32A12D5A741
FILE: 03 - Wayward Child.flac
  Size: 38288141 Hash: 07F8118FE09B43AC8D5611B00D67B288 Accuracy: -m0
  Conclusion: CDDA 100%
  Signature: D2E38FF4EC52D9B281F7FE3A7C6ED6E591A7265A
FILE: 02 - Another Day.flac
  Size: 37117142 Hash: 67C915E313BC6D0E41063CD4BBBB2A00 Accuracy: -m0
  Conclusion: CDDA 100%
  Signature: C7AEAD59EE5BAECD8B66C2DEF9F6DD880A54B929
FILE: 01 - Hangman's Tree.flac
  Size: 27575007 Hash: 6AA6F5DA5A1E0CC24525B9B47609EDD9 Accuracy: -m0
  Conclusion: CDDA 100%
  Signature: FA9739E0BA05D12D69CCE44E5D1FA2427A1408AD

Мы в соц сетях:
Посмотреть товар в профиле пользователя

Нажмите на изображение, чтобы увидеть в полный размер  
1 шт.
Нажмите на изображение, чтобы увидеть в полный размер  
1 шт.
Нажмите на изображение, чтобы увидеть в полный размер  
1 шт.
Нажмите на изображение, чтобы увидеть в полный размер  
1 шт.
  • Торрент
Автор: PREDATOR-DJ Хэш: ---
Добавлен: 13 фев 2017, 13:31 Приватный: Нет (DHT включён)
Статус: Проверен
Размер: 264.47 МБ (277 313 435 байт)
Изменил: PREDATOR-DJ (13 фев 2017, 13:32)
Скачали: 1 (Раздающих: 0%)
Причина: http://nnmclub.to/forum/viewtopic.php?t=1099023
Здоровье: 100%
Сидеров: 5 Личеров: 2
Скорость раздачи: 0 байт/сек Скорость скачивания: 0 байт/сек
Последний сидер: 3 месяца 14 дней 13 часов 53 минуты 44 секунды назад Последний личер: 3 месяца 14 дней 13 часов 53 минуты 44 секунды назад
Для скачивания торрента необходимо зарегистрироваться или войти на трекер.

Вернуться в Music | Зарубежный Блюз


cron
Ресурс не предоставляет электронные версии произведений, а занимается лишь коллекционированием и каталогизацией ссылок, присылаемых и публикуемых на форуме нашими читателями. Если вы являетесь правообладателем какого-либо представленного материала и не желаете чтобы ссылка на него находилась в нашем каталоге, свяжитесь с нами и мы незамедлительно удалим её. Файлы для обмена на трекере предоставлены пользователями сайта, и администрация не несёт ответственности за их содержание. Просьба не заливать файлы, защищенные авторскими правами, а также файлы нелегального содержания!
cron