Evanescence - Synthesis Live (2018) Japanese Edition [FLAC|lossless|image + .cue] <Alternative Metal, Gothic Metal>

Модераторы: Модераторы, Модератор музыки

alex11 Аватара пользователя
Модератор
Модератор

Раздал: 12.98 ТБ
Скачал: 50.43 ГБ
Ратио: 263.639
Сообщения: 1287

Зарегистрирован: 10 апр 2017, 07:25
В кошельке: 565.00
Банк: 127,605.12
Награды: 10
Путь к журналисту (1) Журналист (1) Старший журналист (1) За заслуги перед форумом (1)
Богат как фараон (1) Я сама щедрость! (1) В обмен на рекламный банер (1) Раздал 1 Tb (1)
Раздал 5 Tb (1) С Днем Рождения! (1)
Заслуженная репутация: 17
НовичокНовичокНовичокНовичок
  • Постеры
Год: 2018
Лейбл: Universal
Номер по каталогу: UIXY-15019
Жанр: Alternative Metal, Gothic Metal
Продолжительность: 01:18:23

Кодек: FLAC
Битрейт: Lossless
Тип рипа: image + .cue

Треклист:
01. Overture / Never Go Back (06:03)
02. Lacrymosa (03:40)
03. End of the Dream (04:58)
04. My Heart is Broken (04:40)
05. Lithium (03:59)
06. Bring Me To Life (04:23)
07. Unravelling (Interlude) / Imaginary (05:47)
08. Secret Door (03:46)
09. Hi-Lo (05:08)
10. Lost in Paradise (04:48)
11. Your Star (04:44)
12. My Immortal (04:47)
13. The Inbetween (Piano Solo) / Imperfection (06:52)
14. Speak to Me (05:18)
15. Good Enough (05:36)
16. Swimming Home (03:47)

Exact Audio Copy V1.1 from 23. June 2015Exact Aud

EAC extraction logfile from 12. October 2018, 8:05

Evanescence / Synthesis Live (UIXY-15019)

Used drive : TSSTcorpDVDWBD SH-B123L Adapter: 0 ID: 4

Read mode : Secure
Utilize accurate stream : Yes
Defeat audio cache : Yes
Make use of C2 pointers : No

Read offset correction : 6
Overread into Lead-In and Lead-Out : No
Fill up missing offset samples with silence : Yes
Delete leading and trailing silent blocks : No
Null samples used in CRC calculations : Yes
Used interface : Installed external ASPI interface

Used output format : User Defined Encoder
Selected bitrate : 768 kBit/s
Quality : High
Add ID3 tag : No
Command line compressor : C:\Program Files (x86)\Exact Audio Copy\FLAC\FLAC.EXE
Additional command line options : -6 -V -T "ARTIST=%artist%" -T "TITLE=%title%" -T "ALBUM=%albumtitle%" -T "DATE=%year%" -T "TRACKNUMBER=%tracknr%" -T "GENRE=%genre%" -T "COMMENT=%comment%" -T "BAND=%albuminterpret%" -T "ALBUMARTIST=%albuminterpret%" -T "COMPOSER=%composer%" %haslyrics%--tag-from-file=LYRICS="%lyricsfile%"%haslyrics% -T "DISCNUMBER=%cdnumber%" -T "TOTALDISCS=%totalcds%" -T "TOTALTRACKS=%numtracks%" %hascover%--picture="%coverfile%"%hascover% %source% -o %dest%

TOC of the extracted CD

Track | Start | Length | Start sector | End sector
---------------------------------------------------------
1 | 0:00.00 | 6:03.16 | 0 | 27240
2 | 6:03.16 | 3:40.64 | 27241 | 43804
3 | 9:44.05 | 4:58.24 | 43805 | 66178
4 | 14:42.29 | 4:40.13 | 66179 | 87191
5 | 19:22.42 | 3:59.21 | 87192 | 105137
6 | 23:21.63 | 4:23.71 | 105138 | 124933
7 | 27:45.59 | 5:47.05 | 124934 | 150963
8 | 33:32.64 | 3:46.57 | 150964 | 167970
9 | 37:19.46 | 5:08.68 | 167971 | 191138
10 | 42:28.39 | 4:48.31 | 191139 | 212769
11 | 47:16.70 | 4:44.28 | 212770 | 234097
12 | 52:01.23 | 4:47.46 | 234098 | 255668
13 | 56:48.69 | 6:52.68 | 255669 | 286636
14 | 63:41.62 | 5:18.28 | 286637 | 310514
15 | 69:00.15 | 5:36.14 | 310515 | 335728
16 | 74:36.29 | 3:47.44 | 335729 | 352797

Range status and errors

Selected range

Filename E:\MUSIC\Evanescence - Synthesis Live (UIXY-15019).wav

Peak level 91.1 %
Extraction speed 4.0 X
Range quality 100.0 %
Test CRC D7E04654
Copy CRC D7E04654
Copy OK

No errors occurred

AccurateRip summary

Track 1 not present in database
Track 2 not present in database
Track 3 not present in database
Track 4 not present in database
Track 5 not present in database
Track 6 not present in database
Track 7 not present in database
Track 8 not present in database
Track 9 not present in database
Track 10 not present in database
Track 11 not present in database
Track 12 not present in database
Track 13 not present in database
Track 14 not present in database
Track 15 not present in database
Track 16 not present in database

None of the tracks are present in the AccurateRip database

End of status report

==== Log checksum 5E7A44B830E413707F18A8C4BC216AE81297AD7DBE8803FA5E1D84B7F42043CD ====
REM GENRE RockREM
REM DATE 2018
REM DISCID D3125F10
REM COMMENT "ExactAudioCopy v1.1"
PERFORMER "Evanescence"
TITLE "Synthesis Live (UIXY-15019)"
FILE "Evanescence - Synthesis Live (UIXY-15019).flac" WAVE
TRACK 01 AUDIO
TITLE "Overture / Never Go Back"
PERFORMER "Evanescence"
INDEX 01 00:00:00
TRACK 02 AUDIO
TITLE "Lacrymosa"
PERFORMER "Evanescence"
INDEX 01 06:03:16
TRACK 03 AUDIO
TITLE "End of the Dream"
PERFORMER "Evanescence"
INDEX 01 09:44:05
TRACK 04 AUDIO
TITLE "My Heart is Broken"
PERFORMER "Evanescence"
INDEX 01 14:42:29
TRACK 05 AUDIO
TITLE "Lithium"
PERFORMER "Evanescence"
INDEX 01 19:22:42
TRACK 06 AUDIO
TITLE "Bring Me To Life"
PERFORMER "Evanescence"
INDEX 01 23:21:63
TRACK 07 AUDIO
TITLE "Unravelling (Interlude) / Imaginary"
PERFORMER "Evanescence"
INDEX 01 27:45:59
TRACK 08 AUDIO
TITLE "Secret Door"
PERFORMER "Evanescence"
INDEX 01 33:32:64
TRACK 09 AUDIO
TITLE "Hi-Lo"
PERFORMER "Evanescence"
INDEX 01 37:19:46
TRACK 10 AUDIO
TITLE "Lost in Paradise"
PERFORMER "Evanescence"
INDEX 01 42:28:39
TRACK 11 AUDIO
TITLE "Your Star"
PERFORMER "Evanescence"
INDEX 01 47:16:70
TRACK 12 AUDIO
TITLE "My Immortal"
PERFORMER "Evanescence"
INDEX 01 52:01:23
TRACK 13 AUDIO
TITLE "The Inbetween (Piano Solo) / Imperfection"
PERFORMER "Evanescence"
INDEX 01 56:48:69
TRACK 14 AUDIO
TITLE "Speak to Me"
PERFORMER "Evanescence"
INDEX 01 63:41:62
TRACK 15 AUDIO
TITLE "Good Enough"
PERFORMER "Evanescence"
INDEX 01 69:00:15
TRACK 16 AUDIO
TITLE "Swimming Home"
PERFORMER "Evanescence"
INDEX 01 74:36:29
----------------------------------------------

DON'T MODIFY THIS FILEDON'T MODIFY THIS FILE

----------------------------------------------

PERFORMER: auCDtect Task Manager, ver. 1.6.0 RC1 build 1.6.0.1PERFORMER: auCDtect Task Man
Copyright (c) 2008-2010 y-soft. All rights reserved
http://y-soft.org

ANALYZER: auCDtect: CD records authenticity detector, version 0.8.2
Copyright (c) 2004 Oleg Berngardt. All rights reserved.
Copyright (c) 2004 Alexander Djourik. All rights reserved.

FILE: Evanescence - Synthesis Live (UIXY-15019).flac
Size: 557208520 Hash: 7C368142BC4161E87DCB797D5C6055E7 Accuracy: -m0
Conclusion: CDDA 99%
Signature: 6367A9FD4A2ADF24878105DCD886262060647147
  • Торрент
Автор: alex11 Хэш: ---
Добавлен: 17 окт 2018, 00:58 Приватный: Нет (DHT включён)
Статус: Проверен
Размер: 555.67 МБ (582 665 175 байт)
Изменил:
---
Скачали: 7 (Раздающих: 0%)
Причина:
---
Здоровье: 100%
Сидеров: 4 Личеров: 1
Скорость раздачи: 0 байт/сек Скорость скачивания: 0 байт/сек
Последний сидер: 3 месяца 20 дней 19 часов 15 минут 24 секунды назад Последний личер: 3 месяца 20 дней 19 часов 15 минут 24 секунды назад
Для скачивания торрента необходимо зарегистрироваться или войти на трекер.

Вернуться в Music | Alternative & Nu-Metal


Ресурс не предоставляет электронные версии произведений, а занимается лишь коллекционированием и каталогизацией ссылок, присылаемых и публикуемых на форуме нашими читателями. Если вы являетесь правообладателем какого-либо представленного материала и не желаете чтобы ссылка на него находилась в нашем каталоге, свяжитесь с нами и мы незамедлительно удалим её. Файлы для обмена на трекере предоставлены пользователями сайта, и администрация не несёт ответственности за их содержание. Просьба не заливать файлы, защищенные авторскими правами, а также файлы нелегального содержания!
cron